<?xml version="1.0" encoding="UTF-8" standalone="no"?>
<!DOCTYPE svg PUBLIC "-//W3C//DTD SVG 1.1//EN" "http://www.w3.org/Graphics/SVG/1.1/DTD/svg11.dtd" >
<svg xmlns="http://www.w3.org/2000/svg">
<metadata>
Generated by SVGconv.
Copyright   : Copyright (c) 2018 ParaType Inc., ParaType Ltd. All rights reserved.
Designer    : ParaType Ltd
Foundry     : ParaType Ltd
Foundry URL : http://www.paratype.com
</metadata>
<defs>
<font id="SBSansInterface-Semibold" horiz-adv-x="564" >
<font-face units-per-em="1000" ascent="950" descent="250" >
<font-face-src>
<font-face-name/>
</font-face-src>
</font-face>
<missing-glyph horiz-adv-x="500" />
<glyph unicode="&#13;" horiz-adv-x="250" />
<glyph unicode="&#32;" horiz-adv-x="250" />
<glyph unicode="&#33;" horiz-adv-x="330" d="M165 -7q-40 0 -60.5 21q-20.5 21 -20.5 60q0 81 81 81q81 0 81 -81q0 -39 -20.5 -60q-20.5 -21 -60.5 -21zt0 0zM100 700h130l-10 -459l-110 0z" />
<glyph unicode="&#34;" horiz-adv-x="470" d="M80 700h102v-280h-102zM288 700h102v-280l-102 0z" />
<glyph unicode="&#35;" horiz-adv-x="600" d="M327 187h-111l-33 -187h-100l33 187h-96l16 93h96l25 140h-96l16 93h96l33 187h100l-33 -187h111l33 187h100l-33 -187h96l-16 -93h-96l-25 -140h97l-17 -93h-96l-33 -187h-100zM232 280h111l25 140l-111 0z" />
<glyph unicode="&#36;" horiz-adv-x="600" d="M255 -11q-55 4 -100 17.5q-45 13.5 -74 31.5l0 139q13 -12 33.5 -24.5q20.5 -12.5 46.5 -23q26 -10.5 58 -17q32 -6.5 68 -6.5q64 0 90.5 22.5q26.5 22.5 26.5 61.5q0 38 -24.5 59.5q-24.5 21.5 -60.5 37q-36 15.5 -79 29.5q-43 14 -79 37q-36 23 -60.5 60.5q-24.5 37.5 -24.5 99.5q0 84 42.5 133.5q42.5 49.5 136.5 62.5l0 91h100v-88q46 -3 85.5 -12.5q39.5 -9.5 65.5 -21.5l0 -139q-33 26 -82.5 40.5q-49.5 14.5 -100.5 14.5q-34 0 -56 -5q-22 -5 -35 -14q-13 -9 -18.5 -23q-5.5 -14 -5.5 -32q0 -36 24.5 -56q24.5 -20 60.5 -34.5q36 -14.5 79 -28.5q43 -14 79 -37.5q36 -23.5 60.5 -63q24.5 -39.5 24.5 -103.5q0 -88 -43.5 -140.5q-43.5 -52.5 -137.5 -65.5l0 -111l-100 0z" />
<glyph unicode="&#37;" horiz-adv-x="860" d="M611 700h89l-451 -700h-89zM232 374q-82 0 -124.5 42.5q-42.5 42.5 -42.5 123.5q0 80 43 123q43 43 124 43q81 0 123.5 -42.5q42.5 -42.5 42.5 -123.5q0 -80 -43 -123q-43 -43 -123 -43zt0 0zM232 452q40 0 60 20.5q20 20.5 20 67.5q0 47 -20 67.5q-20 20.5 -60 20.5q-41 0 -61 -20.5q-20 -20.5 -20 -67.5q0 -47 20 -67.5q20 -20.5 61 -20.5zt0 0zM628 -6q-81 0 -123.5 42.5q-42.5 42.5 -42.5 123.5q0 80 43 123q43 43 123 43q82 0 124.5 -42.5q42.5 -42.5 42.5 -123.5q0 -80 -43 -123q-43 -43 -124 -43zt0 0zM628 72q41 0 61 20.5q20 20.5 20 67.5q0 47 -20 67.5q-20 20.5 -61 20.5q-41 0 -60.5 -20.5q-19.5 -20.5 -19.5 -67.5q0 -47 19.5 -67.5t60.5 -20.5z" />
<glyph unicode="&#38;" horiz-adv-x="800" d="M307 -13q-117 0 -178 56q-61 56 -61 154q0 73 37 126.5q37 53.5 107 89.5q-20 37 -31.5 74.5q-11.5 37.5 -11.5 71.5q0 75 44 114.5q44 39.5 126 39.5q46 0 78.5 -11q32.5 -11 52.5 -30q20 -19 29 -45.5q9 -26.5 9 -57.5q0 -37 -13 -65.5q-13 -28.5 -36 -51q-23 -22.5 -54.5 -40.5q-31.5 -18 -67.5 -33q34 -54 76 -101q42 -47 96 -87q40 54 62.5 131q22.5 77 24.5 165l107 0q-2 -91 -30.5 -181q-28.5 -90 -79.5 -162q32 -17 64.5 -28q32.5 -11 64.5 -14l0 -115q-52 4 -105.5 25q-53.5 21 -100.5 55q-45 -39 -98.5 -59.5q-53.5 -20.5 -110.5 -20.5zt0 0zM317 89q33 0 62 10.5q29 10.5 54 29.5q-55 46 -99 98.5q-44 52.5 -76 109.5q-77 -40 -77 -122q0 -60 33 -93q33 -33 103 -33zt0 0zM337 621q-33 0 -51.5 -17.5q-18.5 -17.5 -18.5 -55.5q0 -20 7.5 -44.5q7.5 -24.5 22.5 -50.5q51 23 80 46q29 23 29 61q0 29 -15.5 45t-53.5 16z" />
<glyph unicode="&#39;" horiz-adv-x="270" d="M80 700h110v-280l-110 0z" />
<glyph unicode="&#40;" horiz-adv-x="380" d="M73 288q0 79 15.5 147.5q15.5 68.5 43.5 127.5q28 59 66 110q38 51 83 97l70 -61q-36 -45 -65 -91.5q-29 -46.5 -50 -97.5q-21 -51 -32.5 -108.5q-11.5 -57.5 -11.5 -123.5q0 -66 11.5 -123.5q11.5 -57.5 32.5 -108.5q21 -51 50 -97.5q29 -46.5 65 -91.5l-71 -60q-45 46 -82.5 97q-37.5 51 -65.5 110q-28 59 -43.5 127t-15.5 147z" />
<glyph unicode="&#41;" horiz-adv-x="380" d="M307 288q0 -79 -15.5 -147q-15.5 -68 -43.5 -127q-28 -59 -66 -110q-38 -51 -83 -97l-70 60q36 45 65 91.5q29 46.5 50 97.5q21 51 32.5 108.5q11.5 57.5 11.5 124.5q0 66 -11.5 123q-11.5 57 -32.5 108q-21 51 -50 97.5q-29 46.5 -65 91.5l71 61q45 -46 82.5 -97q37.5 -51 65.5 -110q28 -59 43.5 -127.5t15.5 -147.5z" />
<glyph unicode="&#42;" horiz-adv-x="500" d="M100 367l96 114l-136 32l28 98l130 -62l-16 151h96l-15 -151l129 62l28 -98l-137 -33l97 -113l-78 -57l-72 130l-72 -130z" />
<glyph unicode="&#43;" horiz-adv-x="600" d="M90 410h156v157h108v-157h156v-107h-156v-157h-108v157l-156 0z" />
<glyph unicode="&#44;" horiz-adv-x="320" d="M54 -110q46 13 73.5 43q27.5 30 32.5 61q-81 0 -81 80q0 81 81 81q48 0 68.5 -28.5q20.5 -28.5 20.5 -82.5q0 -42 -12.5 -78q-12.5 -36 -33 -65q-20.5 -29 -48 -49.5q-27.5 -20.5 -57.5 -31.5z" />
<glyph unicode="&#45;" horiz-adv-x="400" d="M40 334h320v-107l-320 0z" />
<glyph unicode="&#46;" horiz-adv-x="320" d="M160 -6q-81 0 -81 80q0 81 81 81q81 0 81 -81q0 -80 -81 -80z" />
<glyph unicode="&#47;" horiz-adv-x="400" d="M283 757h112l-278 -937l-112 0z" />
<glyph unicode="&#48;" horiz-adv-x="570" d="M285 -13q-56 0 -100.5 18.5q-44.5 18.5 -75.5 61q-31 42.5 -47.5 112q-16.5 69.5 -16.5 171.5q0 103 16 173q16 70 46.5 112q30.5 42 75.5 60q45 18 102 18q60 0 105 -17q45 -17 75 -58.5q30 -41.5 45 -111.5q15 -70 15 -176q0 -104 -15.5 -173.5q-15.5 -69.5 -46 -111.5q-30.5 -42 -75.5 -60q-45 -18 -103 -18zt0 0zM285 106q27 0 47 9q20 9 33.5 35q13.5 26 20.5 74q7 48 7 126q0 78 -7 125.5q-7 47.5 -20.5 74q-13.5 26.5 -33.5 35.5q-20 9 -47 9q-27 0 -47 -9q-20 -9 -33.5 -35.5q-13.5 -26.5 -20.5 -74.5q-7 -48 -7 -125q0 -75 7.5 -122.5q7.5 -47.5 22 -74.5q14.5 -27 34.5 -37t44 -10z" />
<glyph unicode="&#49;" horiz-adv-x="570" d="M80 107h182v450l-182 -119v119l220 143h89v-593h133v-107l-442 0z" />
<glyph unicode="&#50;" horiz-adv-x="570" d="M52 85q68 65 126.5 115.5q58.5 50.5 102 94.5q43.5 44 68 86q24.5 42 24.5 91q0 63 -30.5 92.5q-30.5 29.5 -95.5 29.5q-53 0 -100 -19.5q-47 -19.5 -82 -50.5l0 143q39 20 92 33q53 13 113 13q66 0 110.5 -15q44.5 -15 72.5 -42.5q28 -27.5 40 -66q12 -38.5 12 -85.5q0 -59 -18.5 -106q-18.5 -47 -54 -92q-35.5 -45 -86 -91q-50.5 -46 -113.5 -101l275 0v-114l-456 0z" />
<glyph unicode="&#51;" horiz-adv-x="570" d="M167 408h63q69 0 97.5 25q28.5 25 28.5 76q0 43 -25.5 64.5q-25.5 21.5 -95.5 21.5q-52 0 -99.5 -17q-47.5 -17 -81.5 -40l0 130q42 18 100.5 30.5q58.5 12.5 111.5 12.5q65 0 108 -12q43 -12 68.5 -35q25.5 -23 36 -56q10.5 -33 10.5 -75q0 -133 -130 -169q79 -10 115 -52q36 -42 36 -114q0 -50 -14 -88.5q-14 -38.5 -45 -65.5q-31 -27 -80 -41q-49 -14 -118 -14q-56 0 -112.5 12q-56.5 12 -95.5 32l0 138q35 -26 86 -45.5q51 -19.5 106 -19.5q43 0 70.5 7q27.5 7 43 20.5q15.5 13.5 21 33q5.5 19.5 5.5 43.5q0 22 -6.5 39.5q-6.5 17.5 -22.5 29.5q-16 12 -42.5 18q-26.5 6 -66.5 6l-72 0z" />
<glyph unicode="&#52;" horiz-adv-x="570" d="M335 167h-309v75l278 458h158v-419h83v-114h-83v-167h-127zM334 281l1 285l-168 -285z" />
<glyph unicode="&#53;" horiz-adv-x="570" d="M101 700h392v-114h-296l-11 -149q18 3 48 4.5q30 1.5 61 1.5q61 0 104 -14q43 -14 70 -41.5q27 -27.5 39 -67q12 -39.5 12 -90.5q0 -56 -13 -101q-13 -45 -44 -76.5q-31 -31.5 -82 -48.5q-51 -17 -127 -17q-45 0 -94.5 9q-49.5 9 -89.5 26l0 131q29 -21 78 -36q49 -15 100 -15q78 0 110 31.5q32 31.5 32 94.5q0 30 -7 51.5q-7 21.5 -24 35.5q-17 14 -45.5 20.5q-28.5 6.5 -71.5 6.5q-45 0 -91 -4.5q-46 -4.5 -74 -9.5z" />
<glyph unicode="&#54;" horiz-adv-x="570" d="M299 -13q-68 0 -115.5 21.5q-47.5 21.5 -77 64.5q-29.5 43 -43 106q-13.5 63 -13.5 146q0 196 73.5 292q73.5 96 221.5 96q38 0 75 -5.5q37 -5.5 67 -17.5l0 -130q-23 16 -58.5 27q-35.5 11 -87.5 11q-36 0 -68.5 -13q-32.5 -13 -57 -41q-24.5 -28 -39 -70.5q-14.5 -42.5 -14.5 -102.5v-26q55 109 173 109q98 0 146.5 -57.5q48.5 -57.5 48.5 -160.5q0 -65 -16.5 -111.5q-16.5 -46.5 -47 -77.5q-30.5 -31 -73 -45.5q-42.5 -14.5 -94.5 -14.5zt0 0zM295 95q45 0 76 31.5q31 31.5 31 100.5q0 70 -26.5 100q-26.5 30 -78.5 30q-53 0 -82 -33q-29 -33 -34 -84q1 -63 30.5 -104t83.5 -41z" />
<glyph unicode="&#55;" horiz-adv-x="570" d="M378 586h-338v114h480v-76l-255 -624l-136 0z" />
<glyph unicode="&#56;" horiz-adv-x="570" d="M286 -13q-126 0 -183.5 54q-57.5 54 -57.5 152q0 64 25.5 111q25.5 47 93.5 68q-55 17 -79 54.5q-24 37.5 -24 103.5q0 85 54 134q54 49 171 49q114 0 167.5 -44.5q53.5 -44.5 53.5 -128.5q0 -62 -21 -104.5q-21 -42.5 -80 -63.5q68 -17 93.5 -60.5q25.5 -43.5 25.5 -115.5q0 -47 -14 -85q-14 -38 -43.5 -66q-29.5 -28 -74.5 -43q-45 -15 -107 -15zt0 0zM286 95q50 0 78.5 28.5q28.5 28.5 28.5 87.5q0 58 -28 85.5q-28 27.5 -79 27.5q-55 0 -82 -31q-27 -31 -27 -82q0 -61 29.5 -88.5q29.5 -27.5 79.5 -27.5zt0 0zM286 408q52 0 74 27.5q22 27.5 22 74.5q0 51 -23.5 73q-23.5 22 -73.5 22q-99 0 -99 -98q0 -48 26 -73.5t74 -25.5z" />
<glyph unicode="&#57;" horiz-adv-x="570" d="M223 -13q-36 0 -72.5 5.5q-36.5 5.5 -66.5 16.5l0 131q24 -17 58 -27.5q34 -10.5 85 -10.5q36 0 69 13q33 13 58 41q25 28 39.5 71q14.5 43 14.5 103q0 8 0 14q0 6 -1 11q-26 -54 -69 -81.5q-43 -27.5 -103 -27.5q-97 0 -146 58q-49 58 -49 160q0 64 16.5 111q16.5 47 46.5 78q30 31 72.5 45.5q42.5 14.5 94.5 14.5q68 0 115.5 -22q47.5 -22 77.5 -64.5q30 -42.5 43.5 -106q13.5 -63.5 13.5 -147.5q0 -196 -74 -291q-74 -95 -223 -95zt0 0zM271 343q55 0 85 32q30 32 33 87q-1 69 -30.5 106q-29.5 37 -85.5 37q-44 0 -74 -32q-30 -32 -30 -100q0 -68 26 -99t76 -31z" />
<glyph unicode="&#58;" horiz-adv-x="330" d="M165 -6q-81 0 -81 80q0 81 81 81q81 0 81 -81q0 -80 -81 -80zt0 0zM165 359q-81 0 -81 80q0 81 81 81q81 0 81 -81q0 -80 -81 -80z" />
<glyph unicode="&#59;" horiz-adv-x="330" d="M59 -110q46 13 73.5 43q27.5 30 32.5 61q-81 0 -81 80q0 81 81 81q48 0 68.5 -28.5q20.5 -28.5 20.5 -82.5q0 -42 -12.5 -78q-12.5 -36 -33 -65q-20.5 -29 -48 -49.5q-27.5 -20.5 -57.5 -31.5zM165 359q-81 0 -81 80q0 81 81 81q81 0 81 -81q0 -80 -81 -80z" />
<glyph unicode="&#60;" horiz-adv-x="600" d="M90 294v118l420 202v-122l-296 -135l296 -135l0 -130z" />
<glyph unicode="&#61;" horiz-adv-x="600" d="M90 300h420v-107h-420zM90 514h420v-108l-420 0z" />
<glyph unicode="&#62;" horiz-adv-x="600" d="M510 412v-118l-420 -202v122l296 135l-296 136l0 129z" />
<glyph unicode="&#63;" horiz-adv-x="480" d="M195 -6q-81 0 -81 80q0 81 81 81q81 0 81 -81q0 -80 -81 -80zt0 0zM136 231q0 44 12.5 73.5q12.5 29.5 31.5 50.5q19 21 40.5 37q21.5 16 40.5 32.5q19 16.5 31.5 37.5q12.5 21 12.5 52q0 40 -25 62.5q-25 22.5 -80 22.5q-49 0 -87 -16q-38 -16 -68 -37l0 133q32 14 75 24q43 10 97 10q115 0 166.5 -47q51.5 -47 51.5 -135q0 -49 -13.5 -81.5q-13.5 -32.5 -34 -55.5q-20.5 -23 -44.5 -40q-24 -17 -44.5 -34q-20.5 -17 -34 -37.5q-13.5 -20.5 -13.5 -51.5z" />
<glyph unicode="&#64;" horiz-adv-x="900" d="M466 -133q-99 0 -173 31q-74 31 -123 86.5q-49 55.5 -73.5 132q-24.5 76.5 -24.5 167.5q0 90 24.5 168q24.5 78 73.5 135q49 57 122.5 90q73.5 33 170.5 33q84 0 152 -26q68 -26 115 -75.5q47 -49.5 72.5 -120q25.5 -70.5 25.5 -160.5q0 -131 -49.5 -197.5q-49.5 -66.5 -132.5 -66.5q-53 0 -78 22q-25 22 -34 70q-23 -92 -123 -92q-78 0 -115 53.5q-37 53.5 -37 171.5q0 117 42.5 171.5q42.5 54.5 118.5 54.5q50 0 73 -21.5q23 -21.5 33 -49.5l8 61h84v-299q0 -35 10 -50.5q10 -15.5 33 -15.5q18 0 34.5 9.5q16.5 9.5 29 31.5q12.5 22 20.5 56.5q8 34.5 8 85.5q0 147 -73 230q-73 83 -219 83q-80 0 -138.5 -25.5q-58.5 -25.5 -97 -72q-38.5 -46.5 -57 -111.5q-18.5 -65 -18.5 -144q0 -71 17 -133q17 -62 54.5 -108.5q37.5 -46.5 98 -73.5q60.5 -27 146.5 -27q45 0 92.5 11.5q47.5 11.5 78.5 33.5l0 -84q-38 -15 -80.5 -25q-42.5 -10 -90.5 -10zt0 0zM439 144q42 0 60 31.5q18 31.5 18 91.5v53q0 63 -18.5 88.5q-18.5 25.5 -56.5 25.5q-42 0 -61.5 -32q-19.5 -32 -19.5 -111q0 -77 15.5 -112t62.5 -35z" />
<glyph unicode="&#65;" horiz-adv-x="640" d="M249 700h143l233 -700h-133l-52 166h-246l-52 -166h-127zM227 273h180l-89 287z" />
<glyph unicode="&#66;" horiz-adv-x="625" d="M307 -6q-38 0 -76.5 1.5q-38.5 1.5 -70.5 3.5q-37 3 -71 6l0 690q34 2 71 5q32 2 70 4q38 2 75 2q73 0 122 -11q49 -11 78.5 -33.5q29.5 -22.5 41.5 -57.5q12 -35 12 -83q0 -125 -113 -156q65 -9 100 -50q35 -41 35 -116q0 -52 -13.5 -90.5q-13.5 -38.5 -45.5 -64q-32 -25.5 -84.5 -38q-52.5 -12.5 -130.5 -12.5zt0 0zM449 208q0 51 -27 74.5q-27 23.5 -99 23.5h-106v-197q15 -1 32 -2q14 -1 32.5 -1q18.5 0 38.5 0q37 0 62 5.5q25 5.5 40 18q15 12.5 21 32q6 19.5 6 46.5zt0 0zM427 502q0 50 -24 71q-24 21 -91 21q-20 0 -37 -0.5q-17 -0.5 -30 -1.5q-15 -1 -28 -1l0 -184h96q64 0 89 22.5t25 72.5z" />
<glyph unicode="&#67;" horiz-adv-x="575" d="M362 -13q-81 0 -140.5 20q-59.5 20 -99 64q-39.5 44 -58.5 114q-19 70 -19 170q0 189 79 273.5q79 84.5 236 84.5q36 0 67.5 -5q31.5 -5 54.5 -11q27 -7 50 -16l0 -129q-29 17 -69.5 29.5q-40.5 12.5 -98.5 12.5q-47 0 -82 -12.5q-35 -12.5 -58.5 -41q-23.5 -28.5 -35 -74q-11.5 -45.5 -11.5 -111.5q0 -69 12 -117q12 -48 35.5 -77q23.5 -29 58.5 -42q35 -13 82 -13q59 0 102.5 16q43.5 16 67.5 33l0 -129q-22 -11 -48 -20q-23 -8 -55 -13.5t-70 -5.5z" />
<glyph unicode="&#68;" horiz-adv-x="680" d="M290 -6q-34 0 -69.5 1.5q-35.5 1.5 -64.5 3.5q-34 3 -67 6l0 690q33 2 68 5q30 2 66.5 4q36.5 2 73.5 2q89 0 153 -19.5q64 -19.5 105 -61.5q41 -42 60.5 -108.5q19.5 -66.5 19.5 -159.5q0 -187 -85.5 -275q-85.5 -88 -259.5 -88zt0 0zM503 357q0 64 -11.5 108q-11.5 44 -36 71q-24.5 27 -63 39q-38.5 12 -92.5 12q-16 0 -31 -0.5q-15 -0.5 -26 -1.5q-14 -1 -26 -2l0 -466q11 -1 23 -2q11 -1 24.5 -1.5q13.5 -0.5 28.5 -0.5q54 0 93.5 13q39.5 13 65.5 42.5q26 29.5 38.5 76t12.5 112.5z" />
<glyph unicode="&#69;" horiz-adv-x="575" d="M89 700h436v-114h-308v-176h268v-107h-268v-189h308v-114l-436 0z" />
<glyph unicode="&#70;" horiz-adv-x="545" d="M89 700h416v-114h-288v-196h258v-114h-258v-276l-128 0z" />
<glyph unicode="&#71;" horiz-adv-x="650" d="M373 -13q-85 0 -146.5 20q-61.5 20 -102 64.5q-40.5 44.5 -60 114q-19.5 69.5 -19.5 168.5q0 188 81.5 273.5q81.5 85.5 246.5 85.5q39 0 70.5 -5q31.5 -5 54.5 -11q26 -7 47 -16l0 -129q-29 16 -73.5 29q-44.5 13 -98.5 13q-50 0 -86.5 -13q-36.5 -13 -61 -41.5q-24.5 -28.5 -36.5 -74q-12 -45.5 -12 -110.5q0 -70 12 -117.5q12 -47.5 36 -77q24 -29.5 61 -42q37 -12.5 87 -12.5q29 0 51 4q22 4 41 9l0 153h-112v107h232v-342q-29 -16 -83 -33t-129 -17z" />
<glyph unicode="&#72;" horiz-adv-x="720" d="M89 700h128v-285h286v285h128v-700h-128v301h-286v-301l-128 0z" />
<glyph unicode="&#73;" horiz-adv-x="330" d="M101 700h128v-700l-128 0z" />
<glyph unicode="&#74;" horiz-adv-x="420" d="M140 -13q-26 0 -46 2.5q-20 2.5 -34 5.5q-17 4 -30 9l0 129q10 -8 24 -14q11 -5 28 -9q17 -4 37 -4q45 0 65 22.5q20 22.5 20 82.5v489h127v-489q0 -63 -10.5 -106q-10.5 -43 -34 -69.5q-23.5 -26.5 -59.5 -37.5t-87 -11z" />
<glyph unicode="&#75;" horiz-adv-x="655" d="M279 299h-62v-299h-128v700h128v-286h62l187 286h149l-230 -341l250 -359l-154 0z" />
<glyph unicode="&#76;" horiz-adv-x="530" d="M89 700h128v-586h288v-114l-416 0z" />
<glyph unicode="&#77;" horiz-adv-x="850" d="M89 700h162l177 -405l176 405h157v-700h-123v421q0 16 0 29q0 13 0.5 25q0.5 12 1 24.5q0.5 12.5 2.5 28.5l-3 0q-6 -16 -10.5 -28.5q-4.5 -12.5 -9 -24.5q-4.5 -12 -10 -24.5q-5.5 -12.5 -12.5 -29.5l-119 -270h-106l-119 270q-7 17 -12.5 29.5q-5.5 12.5 -10 24.5q-4.5 12 -9 24.5q-4.5 12.5 -10.5 28.5l-3 0q1 -16 2 -28.5q1 -12.5 1.5 -24.5q0.5 -12 0.5 -25q0 -13 0 -29v-421l-123 0z" />
<glyph unicode="&#78;" horiz-adv-x="740" d="M89 700h150l230 -397q12 -22 22 -42q10 -20 18 -36q9 -18 16 -36l2 0q-1 18 -2 36q-1 16 -1.5 36q-0.5 20 -0.5 42v397h128v-700h-150l-230 397q-13 23 -23 43q-10 20 -18 36q-9 18 -15 35l-2 0q1 -17 2 -35q1 -16 1.5 -36q0.5 -20 0.5 -43v-397l-128 0z" />
<glyph unicode="&#79;" horiz-adv-x="710" d="M355 -13q-153 0 -231.5 85.5q-78.5 85.5 -78.5 277.5q0 190 79.5 276.5q79.5 86.5 230.5 86.5q78 0 136.5 -20q58.5 -20 97 -63.5q38.5 -43.5 57.5 -112.5q19 -69 19 -167q0 -190 -79.5 -276.5q-79.5 -86.5 -230.5 -86.5zt0 0zM355 102q44 0 77 12.5q33 12.5 55.5 41.5q22.5 29 34 76.5q11.5 47.5 11.5 117.5q0 70 -11.5 117.5q-11.5 47.5 -34 76.5q-22.5 29 -55.5 41.5q-33 12.5 -77 12.5q-44 0 -77 -12.5q-33 -12.5 -55.5 -41.5q-22.5 -29 -34 -76.5q-11.5 -47.5 -11.5 -117.5q0 -69 11.5 -116.5q11.5 -47.5 34 -77q22.5 -29.5 56 -42t76.5 -12.5z" />
<glyph unicode="&#80;" horiz-adv-x="620" d="M89 695q33 2 68 5q30 2 67 4q37 2 74 2q76 0 129 -14q53 -14 86 -44q33 -30 47.5 -76q14.5 -46 14.5 -109q0 -128 -66 -191q-66 -63 -211 -63q-17 0 -31.5 0q-14.5 0 -25.5 1q-13 1 -24 2l0 -212h-128zM443 463q0 33 -7 56.5q-7 23.5 -24 38.5q-17 15 -45 22q-28 7 -69 7q-17 0 -31.5 -0.5q-14.5 -0.5 -25.5 -1.5q-13 -1 -24 -2l0 -252q11 -1 24 -2q11 -1 25.5 -1q14.5 0 31.5 0q40 0 68 7.5q28 7.5 45 23.5q17 16 24.5 41.5t7.5 62.5z" />
<glyph unicode="&#81;" horiz-adv-x="710" d="M342 -13q-73 2 -128.5 23.5q-55.5 21.5 -93 65.5q-37.5 44 -56.5 112q-19 68 -19 162q0 190 79.5 276.5q79.5 86.5 230.5 86.5q78 0 136.5 -20q58.5 -20 97 -63.5q38.5 -43.5 57.5 -112.5q19 -69 19 -167q0 -146 -47 -230q-47 -84 -138 -115l128 -165h-153zM355 102q44 0 77 12.5q33 12.5 55.5 41.5q22.5 29 34 76.5q11.5 47.5 11.5 117.5q0 70 -11.5 117.5q-11.5 47.5 -34 76.5q-22.5 29 -55.5 41.5q-33 12.5 -77 12.5q-44 0 -77 -12.5q-33 -12.5 -55.5 -41.5q-22.5 -29 -34 -76.5q-11.5 -47.5 -11.5 -117.5q0 -69 11.5 -116.5q11.5 -47.5 34 -77q22.5 -29.5 56 -42t76.5 -12.5z" />
<glyph unicode="&#82;" horiz-adv-x="640" d="M323 247h-21h-85v-247h-128v695q32 2 66 5q29 2 66 4q37 2 74 2q73 0 123.5 -13q50.5 -13 81.5 -41q31 -28 45 -70.5q14 -42.5 14 -100.5q0 -83 -26.5 -135q-26.5 -52 -86.5 -76l155 -270h-142zM427 474q0 61 -28 87q-28 26 -97 26q-17 0 -33 -0.5q-16 -0.5 -28 -1.5q-14 -1 -27 -1l0 -223h88q67 0 96 27.5t29 85.5z" />
<glyph unicode="&#83;" horiz-adv-x="580" d="M283 -13q-67 0 -122.5 15q-55.5 15 -89.5 36l0 139q13 -12 33.5 -24.5q20.5 -12.5 46.5 -23q26 -10.5 58 -17q32 -6.5 68 -6.5q64 0 90.5 22.5q26.5 22.5 26.5 61.5q0 38 -24.5 59.5q-24.5 21.5 -60.5 37q-36 15.5 -79 29.5q-43 14 -79 37q-36 23 -60.5 60.5q-24.5 37.5 -24.5 99.5q0 96 57 148q57 52 184 52q58 0 107.5 -10q49.5 -10 81.5 -25l0 -139q-33 26 -82.5 40.5q-49.5 14.5 -100.5 14.5q-34 0 -56 -5q-22 -5 -35 -14q-13 -9 -18.5 -23q-5.5 -14 -5.5 -32q0 -36 24.5 -56q24.5 -20 60.5 -34.5q36 -14.5 79 -28.5q43 -14 79 -37.5q36 -23.5 60.5 -63q24.5 -39.5 24.5 -103.5q0 -101 -58.5 -155.5t-184.5 -54.5z" />
<glyph unicode="&#84;" horiz-adv-x="580" d="M226 586h-196v114h520v-114h-196v-586l-128 0z" />
<glyph unicode="&#85;" horiz-adv-x="670" d="M335 -13q-68 0 -117 16q-49 16 -80.5 50.5q-31.5 34.5 -47 89q-15.5 54.5 -15.5 132.5v425h127v-414q0 -53 7.5 -88q7.5 -35 23.5 -55.5q16 -20.5 41 -28.5q25 -8 61 -8q36 0 61.5 8q25.5 8 41.5 28q16 20 23 55q7 35 7 89v414h127v-425q0 -77 -15.5 -132q-15.5 -55 -47.5 -89.5q-32 -34.5 -81 -50.5t-116 -16z" />
<glyph unicode="&#86;" horiz-adv-x="620" d="M15 700h137l166 -551l155 551h132l-210 -700l-160 0z" />
<glyph unicode="&#87;" horiz-adv-x="900" d="M25 700h136l81 -415q3 -16 5.5 -28.5q2.5 -12.5 4 -24.5q1.5 -12 3.5 -24.5q2 -12.5 4 -28.5l4 0q5 32 8.5 53q3.5 21 11.5 53l95 415h145l97 -415q4 -16 6.5 -28.5q2.5 -12.5 5 -24.5q2.5 -12 5 -24.5q2.5 -12.5 5.5 -28.5l3 0q4 32 7.5 53q3.5 21 9.5 53l82 415h131l-142 -700h-159l-101 431q-5 20 -9 39.5q-4 19.5 -7 34.5q-4 18 -7 33l-3 0q-2 -15 -6 -33q-3 -15 -7 -34.5q-4 -19.5 -9 -39.5l-99 -431l-159 0z" />
<glyph unicode="&#88;" horiz-adv-x="630" d="M231 358l-200 342h148l138 -240l137 240h145l-200 -339l211 -361h-151l-146 258l-147 -258l-146 0z" />
<glyph unicode="&#89;" horiz-adv-x="610" d="M246 259l-231 441h146l150 -298l144 298h140l-221 -441v-259l-128 0z" />
<glyph unicode="&#90;" horiz-adv-x="590" d="M45 77l325 509h-315v114h480v-77l-325 -509h335v-114l-500 0z" />
<glyph unicode="&#91;" horiz-adv-x="380" d="M93 757h258v-103h-144v-731h144v-103l-258 0z" />
<glyph unicode="&#92;" horiz-adv-x="400" d="M5 757h116l274 -937l-116 0z" />
<glyph unicode="&#93;" horiz-adv-x="380" d="M29 -77h144v731h-144v103h258v-937l-258 0z" />
<glyph unicode="&#94;" horiz-adv-x="600" d="M249 700h102l179 -347h-101l-131 261l-130 -261l-98 0z" />
<glyph unicode="&#95;" horiz-adv-x="420" d="M0 -100h420v-80l-420 0z" />
<glyph unicode="&#96;" horiz-adv-x="300" d="M29 769h158l84 -151l-100 0z" />
<glyph unicode="&#97;" horiz-adv-x="535" d="M198 -13q-78 0 -118.5 41q-40.5 41 -40.5 120q0 42 11 73q11 31 36 51.5q25 20.5 65 31q40 10.5 98 10.5h100v36q0 47 -23 66.5q-23 19.5 -85 19.5q-47 0 -89.5 -12q-42.5 -12 -68.5 -29l0 120q30 13 77 22q47 9 101 9q58 0 98.5 -10q40.5 -10 65 -33q24.5 -23 35.5 -60q11 -37 11 -91v-352h-110l-5 85q-15 -40 -54 -69q-39 -29 -104 -29zt0 0zM242 91q50 0 78.5 29.5q28.5 29.5 28.5 86.5v29h-86q-56 0 -77 -18.5q-21 -18.5 -21 -58.5q0 -34 18 -51t59 -17z" />
<glyph unicode="&#98;" horiz-adv-x="590" d="M344 -13q-33 0 -58 8q-25 8 -43.5 20.5q-18.5 12.5 -31 29q-12.5 16.5 -20.5 33.5l-5 -78h-117v757h122v-303q10 19 24.5 36q14.5 17 34.5 29.5q20 12.5 46.5 19.5q26.5 7 60.5 7q49 0 85.5 -15q36.5 -15 60.5 -47.5q24 -32.5 36 -84.5q12 -52 12 -127q0 -153 -51.5 -219q-51.5 -66 -155.5 -66zt0 0zM309 97q29 0 51 8q22 8 36.5 28.5q14.5 20.5 21.5 54q7 33.5 7 84.5q0 47 -7 78.5q-7 31.5 -21.5 50.5q-14.5 19 -36 27q-21.5 8 -49.5 8q-58 0 -89 -33.5q-31 -33.5 -31 -107.5v-56q0 -73 31.5 -107.5t86.5 -34.5z" />
<glyph unicode="&#99;" horiz-adv-x="475" d="M295 -13q-66 0 -114.5 15.5q-48.5 15.5 -80 50q-31.5 34.5 -46.5 88.5q-15 54 -15 131q0 142 64 208q64 66 189 66q31 0 57 -3.5q26 -3.5 45 -8.5q19 -5 30.5 -9.5q11.5 -4.5 14.5 -5.5l0 -127q-24 18 -56.5 31q-32.5 13 -77.5 13q-72 0 -106 -37.5q-34 -37.5 -34 -126.5q0 -95 36.5 -135q36.5 -40 113.5 -40q38 0 74 13q36 13 56 32l0 -121q-3 -2 -15 -7.5q-12 -5.5 -31.5 -11.5q-19.5 -6 -46 -10.5t-57.5 -4.5z" />
<glyph unicode="&#100;" horiz-adv-x="590" d="M399 81q-8 -17 -21.5 -33.5q-13.5 -16.5 -33 -30q-19.5 -13.5 -46 -22q-26.5 -8.5 -59.5 -8.5q-51 0 -88.5 15.5q-37.5 15.5 -62.5 49.5q-25 34 -37 88q-12 54 -12 132q0 144 50.5 209q50.5 65 153.5 65q59 0 98 -24q39 -24 58 -66l0 301h122v-757h-117zM165 272q0 -51 7.5 -84.5q7.5 -33.5 22 -53.5q14.5 -20 36 -28.5q21.5 -8.5 50.5 -8.5q55 0 86.5 34.5q31.5 34.5 31.5 108.5v56q0 140 -119 140q-58 0 -86.5 -35.5t-28.5 -128.5z" />
<glyph unicode="&#101;" horiz-adv-x="550" d="M293 -13q-136 0 -195 70q-59 70 -59 217q0 138 63.5 205q63.5 67 177.5 67q124 0 177.5 -64.5q53.5 -64.5 53.5 -188.5v-58h-350q3 -76 37.5 -110q34.5 -34 108.5 -34q51 0 98.5 16.5q47.5 16.5 73.5 40.5l0 -113q-29 -19 -73 -33.5q-44 -14.5 -113 -14.5zt0 0zM280 450q-57 0 -86 -32.5q-29 -32.5 -33 -104.5l228 0q0 67 -23 102t-86 35z" />
<glyph unicode="&#102;" horiz-adv-x="400" d="M116 427h-86v107h86v59q0 90 37.5 130q37.5 40 127.5 40q29 0 50.5 -3q21.5 -3 38.5 -7l0 -113q-9 5 -26 9q-17 4 -41 4q-34 0 -49.5 -18q-15.5 -18 -15.5 -59v-42h132v-107h-132v-427l-122 0z" />
<glyph unicode="&#103;" horiz-adv-x="590" d="M263 -193q-59 0 -106.5 10.5q-47.5 10.5 -73.5 23.5l0 130q10 -9 27 -18.5q17 -9.5 40 -17.5q23 -8 52 -13q29 -5 63 -5q71 0 102.5 31q31.5 31 31.5 98v59q-8 -17 -21.5 -33.5q-13.5 -16.5 -33 -30q-19.5 -13.5 -46 -22q-26.5 -8.5 -59.5 -8.5q-101 0 -150.5 62.5q-49.5 62.5 -49.5 201.5q0 143 50.5 207q50.5 64 153.5 64q59 0 98 -24q39 -24 58 -66l5 78h117v-480q0 -132 -63.5 -189.5q-63.5 -57.5 -194.5 -57.5zt0 0zM280 121q56 0 87.5 34.5q31.5 34.5 31.5 105.5v40q0 66 -30 100.5q-30 34.5 -89 34.5q-58 0 -86.5 -34q-28.5 -34 -28.5 -118q0 -92 29 -127.5t86 -35.5z" />
<glyph unicode="&#104;" horiz-adv-x="585" d="M69 757h122v-305q43 94 156 94q85 0 129.5 -45.5q44.5 -45.5 44.5 -149.5v-351h-122v307q0 75 -24 102q-24 27 -77 27q-51 0 -79 -30.5q-28 -30.5 -28 -98.5v-307l-122 0z" />
<glyph unicode="&#105;" horiz-adv-x="290" d="M84 534h122v-534h-122zM145 626q-74 0 -74 68q0 68 74 68q74 0 74 -68q0 -68 -74 -68z" />
<glyph unicode="&#106;" horiz-adv-x="290" d="M62 -186q-30 0 -53.5 5q-23.5 5 -26.5 7l0 114q11 -7 24 -11.5q13 -4.5 28 -4.5q26 0 38 14q12 14 12 52v544h122v-550q0 -92 -36 -131q-36 -39 -108 -39zt0 0zM145 626q-74 0 -74 68q0 68 74 68q74 0 74 -68q0 -68 -74 -68z" />
<glyph unicode="&#107;" horiz-adv-x="555" d="M69 757h122v-427h49l136 204h137l-177 -254l195 -280h-142l-148 223h-50v-223l-122 0z" />
<glyph unicode="&#108;" horiz-adv-x="315" d="M205 -6q-74 0 -107.5 34q-33.5 34 -33.5 112v617h122v-593q0 -34 11 -46q11 -12 37 -12q17 0 32.5 5.5q15.5 5.5 18.5 7.5l0 -110q-3 -2 -25 -8.5t-55 -6.5z" />
<glyph unicode="&#109;" horiz-adv-x="835" d="M69 534h117l5 -83q40 95 143 95q56 0 90 -28q34 -28 45 -79q21 59 59 83q38 24 95 24q69 0 108.5 -43.5q39.5 -43.5 39.5 -141.5v-361h-122v327q0 62 -20.5 85.5q-20.5 23.5 -61.5 23.5q-40 0 -63 -26q-23 -26 -23 -83v-327h-122v327q0 62 -20 85.5q-20 23.5 -60 23.5q-42 0 -65 -26q-23 -26 -23 -83v-327l-122 0z" />
<glyph unicode="&#110;" horiz-adv-x="585" d="M69 534h117l5 -82q43 94 156 94q85 0 129.5 -45.5q44.5 -45.5 44.5 -149.5v-351h-122v310q0 36 -6 60.5q-6 24.5 -18 39q-12 14.5 -31 20.5q-19 6 -46 6q-51 0 -79 -30q-28 -30 -28 -96v-310l-122 0z" />
<glyph unicode="&#111;" horiz-adv-x="570" d="M285 -13q-122 0 -184 66.5q-62 66.5 -62 213.5q0 143 64 211q64 68 182 68q125 0 185.5 -64.5q60.5 -64.5 60.5 -214.5q0 -147 -62.5 -213.5q-62.5 -66.5 -183.5 -66.5zt0 0zM285 97q30 0 52.5 8.5q22.5 8.5 37.5 28q15 19.5 22.5 52.5q7.5 33 7.5 81q0 48 -7.5 80.5q-7.5 32.5 -22.5 52q-15 19.5 -37.5 28q-22.5 8.5 -52.5 8.5q-59 0 -89.5 -37.5q-30.5 -37.5 -30.5 -131.5q0 -48 7.5 -81q7.5 -33 22.5 -52.5q15 -19.5 37.5 -28t52.5 -8.5z" />
<glyph unicode="&#112;" horiz-adv-x="590" d="M69 534h117l5 -80q10 19 24.5 36q14.5 17 34.5 29.5q20 12.5 46.5 19.5q26.5 7 60.5 7q49 0 85.5 -15q36.5 -15 60.5 -47.5q24 -32.5 36 -84.5q12 -52 12 -127q0 -153 -51.5 -219q-51.5 -66 -155.5 -66q-33 0 -58 8q-25 8 -43.5 20.5q-18.5 12.5 -31 29q-12.5 16.5 -20.5 33.5l0 -258h-122zM425 272q0 47 -7 78.5q-7 31.5 -21.5 50.5q-14.5 19 -36 27q-21.5 8 -50.5 8q-57 0 -88 -33.5q-31 -33.5 -31 -107.5v-56q0 -73 31.5 -107.5q31.5 -34.5 86.5 -34.5q29 0 51 8q22 8 36.5 28.5q14.5 20.5 21.5 54t7 84.5z" />
<glyph unicode="&#113;" horiz-adv-x="590" d="M399 81q-8 -17 -21.5 -33.5q-13.5 -16.5 -33 -30q-19.5 -13.5 -46 -22q-26.5 -8.5 -59.5 -8.5q-51 0 -88.5 15.5q-37.5 15.5 -62.5 49.5q-25 34 -37 88q-12 54 -12 132q0 144 50.5 209q50.5 65 153.5 65q59 0 98 -24q39 -24 58 -66l5 78h117v-714h-122zM165 272q0 -51 7.5 -84.5q7.5 -33.5 22 -53.5q14.5 -20 36 -28.5q21.5 -8.5 50.5 -8.5q55 0 86.5 34.5q31.5 34.5 31.5 108.5v56q0 140 -119 140q-58 0 -86.5 -35.5t-28.5 -128.5z" />
<glyph unicode="&#114;" horiz-adv-x="410" d="M69 534h112l5 -85q19 51 53.5 74q34.5 23 79.5 23q20 0 34.5 -2.5q14.5 -2.5 17.5 -3.5l0 -127q-12 9 -32 16q-20 7 -46 7q-49 0 -75.5 -31.5q-26.5 -31.5 -26.5 -108.5v-296l-122 0z" />
<glyph unicode="&#115;" horiz-adv-x="475" d="M223 -13q-38 0 -81 8q-43 8 -83 25l0 123q29 -25 71 -38.5q42 -13.5 90 -13.5q45 0 62.5 15q17.5 15 17.5 44q0 27 -18 41q-18 14 -45.5 23.5q-27.5 9.5 -59.5 18.5q-32 9 -59.5 26q-27.5 17 -45.5 45.5q-18 28.5 -18 77.5q0 82 45.5 123q45.5 41 153.5 41q39 0 79 -7q40 -7 69 -18l0 -122q-32 23 -66.5 33.5q-34.5 10.5 -77.5 10.5q-44 0 -60.5 -13.5q-16.5 -13.5 -16.5 -39.5q0 -25 18 -37.5q18 -12.5 45.5 -21.5q27.5 -9 59.5 -18q32 -9 59.5 -26.5q27.5 -17.5 45.5 -47.5q18 -30 18 -80q0 -86 -47 -129t-156 -43z" />
<glyph unicode="&#116;" horiz-adv-x="435" d="M273 -6q-85 0 -121 40.5q-36 40.5 -36 135.5v257h-86v107h86v98l122 42v-140h152v-107h-152v-243q0 -43 14 -61.5q14 -18.5 49 -18.5q27 0 49.5 8q22.5 8 39.5 21l0 -114q-14 -9 -45 -17t-72 -8z" />
<glyph unicode="&#117;" horiz-adv-x="580" d="M237 -13q-83 0 -128 46q-45 46 -45 150v351h122v-310q0 -73 23 -100q23 -27 74 -27q51 0 78.5 30.5q27.5 30.5 27.5 96.5v310h122v-534h-117l-5 81q-44 -94 -152 -94z" />
<glyph unicode="&#118;" horiz-adv-x="520" d="M15 534h132l116 -394l117 394h125l-174 -534l-142 0z" />
<glyph unicode="&#119;" horiz-adv-x="760" d="M24 534h127l66 -305q3 -15 5.5 -29.5q2.5 -14.5 4.5 -25.5q2 -13 4 -25l2 0q1 12 4 25q3 24 11 55l74 305h118l76 -305q4 -15 7 -29.5q3 -14.5 5 -25.5q3 -13 4 -25l2 0q2 12 4 25q2 11 4 25.5q2 14.5 6 29.5l66 305h122l-117 -534h-145l-77 301q-4 15 -7 29.5q-3 14.5 -5 25.5l-5 25h-2l-5 -25q-2 -11 -5.5 -25.5q-3.5 -14.5 -6.5 -29.5l-75 -301l-145 0z" />
<glyph unicode="&#120;" horiz-adv-x="540" d="M187 274l-151 260h136l100 -173l100 173h132l-151 -257l163 -277h-138l-110 194l-110 -194l-134 0z" />
<glyph unicode="&#121;" horiz-adv-x="520" d="M174 -193q-26 0 -47 5.5q-21 5.5 -24 7.5l0 112q11 -7 22.5 -11q11.5 -4 27.5 -4q10 0 19.5 3q9.5 3 17.5 12q8 9 15.5 25.5q7.5 16.5 14.5 42.5l-205 534h132l129 -366l104 366h125l-162 -528q-20 -64 -38 -103q-18 -39 -37.5 -60.5q-19.5 -21.5 -42.5 -28.5t-51 -7z" />
<glyph unicode="&#122;" horiz-adv-x="490" d="M40 74l249 353h-239v107h397v-75l-249 -352h252v-107l-410 0z" />
<glyph unicode="&#123;" horiz-adv-x="380" d="M289 -180q-47 0 -80 12.5q-33 12.5 -54 35q-21 22.5 -30.5 53.5q-9.5 31 -9.5 69v165q0 43 -20 66.5q-20 23.5 -53 24.5l0 85q33 1 53 25q20 24 20 66v171q0 75 40 119.5q40 44.5 134 44.5h67v-103h-45q-46 0 -63.5 -21.5q-17.5 -21.5 -17.5 -63.5v-148q0 -55 -17.5 -87.5q-17.5 -32.5 -69.5 -45.5q52 -11 69.5 -45q17.5 -34 17.5 -89v-139q0 -42 17.5 -67q17.5 -25 63.5 -25h45l0 -103z" />
<glyph unicode="&#124;" horiz-adv-x="300" d="M93 757h114v-937l-114 0z" />
<glyph unicode="&#125;" horiz-adv-x="380" d="M24 -77h45q46 0 63.5 21.5q17.5 21.5 17.5 63.5v148q0 27 3.5 49q3.5 22 13.5 38.5q10 16.5 27 27.5q17 11 43 17q-26 6 -43 17.5q-17 11.5 -27 28.5q-10 17 -13.5 39.5q-3.5 22.5 -3.5 49.5v146q0 42 -17.5 63.5q-17.5 21.5 -63.5 21.5h-45v103h67q94 0 134 -44.5q40 -44.5 40 -119.5v-171q0 -43 20 -66.5q20 -23.5 53 -24.5l0 -85q-33 -1 -53 -25q-20 -24 -20 -66v-172q0 -74 -40 -118.5q-40 -44.5 -134 -44.5l-67 0z" />
<glyph unicode="&#126;" horiz-adv-x="600" d="M90 395q19 22 44.5 37q25.5 15 62.5 15q34 0 61 -11.5q27 -11.5 50.5 -25q23.5 -13.5 46 -25q22.5 -11.5 48.5 -11.5q34 0 62.5 18q28.5 18 44.5 38l0 -105q-19 -22 -44.5 -37q-25.5 -15 -62.5 -15q-34 0 -61 11.5q-27 11.5 -50.5 25q-23.5 13.5 -46.5 25q-23 11.5 -48 11.5q-34 0 -62.5 -18q-28.5 -18 -44.5 -38z" />
<glyph unicode="&#160;" horiz-adv-x="250" />
<glyph unicode="&#161;" horiz-adv-x="330" d="M165 540q81 0 81 -81q0 -39 -20.5 -60q-20.5 -21 -60.5 -21q-40 0 -60.5 21q-20.5 21 -20.5 60q0 81 81 81zt0 0zM230 -180h-130l10 472l110 0z" />
<glyph unicode="&#162;" horiz-adv-x="600" d="M291 -8q-101 15 -146.5 81.5q-45.5 66.5 -45.5 198.5q0 121 47.5 186.5q47.5 65.5 144.5 81.5l0 94h101v-89q58 -3 90 -14.5q32 -11.5 37 -13.5l0 -127q-24 18 -59 32q-35 14 -85 14q-79 0 -114.5 -37.5q-35.5 -37.5 -35.5 -126.5q0 -95 38 -135q38 -40 122 -40q43 0 81.5 14q38.5 14 58.5 32l0 -120q-5 -4 -39 -17.5q-34 -13.5 -94 -17.5l0 -108l-101 0z" />
<glyph unicode="&#163;" horiz-adv-x="600" d="M48 110h100v200h-100v93h100v75q0 42 11.5 83.5q11.5 41.5 39 75.5q27.5 34 74 55q46.5 21 116.5 21q44 0 82.5 -7.5q38.5 -7.5 70.5 -16.5l0 -111q-34 11 -64.5 18q-30.5 7 -68.5 7q-69 0 -101.5 -37.5q-32.5 -37.5 -32.5 -97.5v-65h174v-93h-174v-200h267v-110l-494 0z" />
<glyph unicode="&#164;" horiz-adv-x="600" d="M425 168q-56 -39 -126 -39q-71 0 -127 39l-63 -63l-55 54l64 64q-40 55 -40 127q0 70 39 126l-63 64l56 56l64 -64q26 18 58 28.5q32 10.5 67 10.5q35 0 67.5 -10.5q32.5 -10.5 59.5 -29.5l65 65l55 -55l-66 -65q19 -27 29.5 -59q10.5 -32 10.5 -67q0 -35 -10.5 -67q-10.5 -32 -28.5 -58l65 -65l-56 -56zM300 225q26 0 48.5 10q22.5 10 39.5 27q17 17 27 39.5q10 22.5 10 48.5q0 26 -10 48.5q-10 22.5 -27 39.5q-17 17 -39.5 27q-22.5 10 -48.5 10q-26 0 -49 -10q-23 -10 -40 -27q-17 -17 -27 -39.5q-10 -22.5 -10 -48.5q0 -26 10 -48.5q10 -22.5 27 -39.5q17 -17 40 -27t49 -10z" />
<glyph unicode="&#165;" horiz-adv-x="600" d="M74 349h120l-179 351h146l145 -301l139 301h140l-171 -351h122v-92h-167v-58h167v-92h-167v-107h-128v107h-167v92h167v58l-167 0z" />
<glyph unicode="&#166;" horiz-adv-x="300" d="M93 213h114v-393h-114zM93 757h114v-394l-114 0z" />
<glyph unicode="&#167;" horiz-adv-x="530" d="M236 -113q-42 0 -83.5 7q-41.5 7 -83.5 22l0 103q47 -20 81 -27.5q34 -7.5 72 -7.5q59 0 81.5 15q22.5 15 22.5 43q0 31 -27 50q-27 19 -81 43q-32 13 -62.5 28q-30.5 15 -54 35.5q-23.5 20.5 -38 47.5q-14.5 27 -14.5 63q0 42 23 75.5q23 33.5 63 59.5q-32 22 -46.5 48.5q-14.5 26.5 -14.5 63.5q0 34 13 62.5q13 28.5 39.5 49.5q26.5 21 66.5 33q40 12 94 12q51 0 90 -9q39 -9 65 -17l0 -101q-49 17 -81.5 23.5q-32.5 6.5 -61.5 6.5q-18 0 -35 -2.5q-17 -2.5 -30 -9.5q-13 -7 -21 -18q-8 -11 -8 -29q0 -14 4 -24q4 -10 14.5 -19.5q10.5 -9.5 28.5 -19q18 -9.5 45 -22.5q34 -16 67.5 -31.5q33.5 -15.5 59 -35q25.5 -19.5 41.5 -45.5q16 -26 16 -63q0 -42 -24 -77.5q-24 -35.5 -60 -61.5q28 -20 43.5 -46q15.5 -26 15.5 -65q0 -75 -55.5 -117.5q-55.5 -42.5 -164.5 -42.5zt0 0zM321 197q17 16 30 36.5q13 20.5 13 45.5q0 32 -22 54q-22 22 -66 43q-3 1 -11.5 5q-8.5 4 -18.5 8.5q-10 4.5 -19 9q-9 4.5 -13 6.5q-48 -35 -48 -78q0 -35 23 -57q23 -22 73 -45q5 -2 14 -6q9 -4 18 -8.5q9 -4.5 16.5 -8.5t10.5 -5z" />
<glyph unicode="&#168;" horiz-adv-x="410" d="M101 628q-71 0 -71 66q0 65 71 65q71 0 71 -65q0 -66 -71 -66zt0 0zM309 628q-71 0 -71 66q0 65 71 65q71 0 71 -65q0 -66 -71 -66z" />
<glyph unicode="&#169;" horiz-adv-x="830" d="M431 158q-101 0 -146.5 52.5q-45.5 52.5 -45.5 141.5q0 97 48.5 147q48.5 50 145.5 50q29 0 52 -4q23 -4 37 -9l0 -73q-17 7 -38.5 10q-21.5 3 -38.5 3q-60 0 -90 -29q-30 -29 -30 -93q0 -67 31.5 -94.5q31.5 -27.5 88.5 -27.5q19 0 39 3.5q20 3.5 39 12.5l0 -75q-17 -6 -39.5 -10.5q-22.5 -4.5 -52.5 -4.5zt0 0zM415 -13q-77 0 -143 28q-66 28 -115 77q-49 49 -77 115q-28 66 -28 143q0 76 28 142.5q28 66.5 77 115.5q49 49 115 77q66 28 143 28q76 0 142.5 -28q66.5 -28 115.5 -77q49 -49 77 -115.5q28 -66.5 28 -142.5q0 -76 -28 -142q-28 -66 -77 -115q-49 -49 -115.5 -77.5q-66.5 -28.5 -142.5 -28.5zt0 0zM415 57q62 0 115 22.5q53 22.5 92 62.5q39 40 61.5 93q22.5 53 22.5 115q0 63 -22.5 116.5q-22.5 53.5 -61.5 92.5q-39 39 -92 61.5q-53 22.5 -115 22.5q-62 0 -115 -22.5q-53 -22.5 -92 -61.5q-39 -39 -61.5 -92.5q-22.5 -53.5 -22.5 -116.5q0 -63 22.5 -116.5q22.5 -53.5 61.5 -92.5q39 -39 92 -61.5t115 -22.5z" />
<glyph unicode="&#170;" horiz-adv-x="370" d="M141 374q-57 0 -81.5 24q-24.5 24 -24.5 72q0 25 7 44.5q7 19.5 23.5 32q16.5 12.5 43 19q26.5 6.5 66.5 6.5h65v15q0 26 -14 37.5q-14 11.5 -54 11.5q-30 0 -60 -7q-30 -7 -47 -17l0 77q20 7 52 12q32 5 68 5q76 0 108 -27q32 -27 32 -92v-207h-77l-6 50q-10 -21 -34 -38.5q-24 -17.5 -67 -17.5zt0 0zM174 439q29 0 47.5 17.5q18.5 17.5 18.5 46.5v18h-54q-36 0 -49 -10.5q-13 -10.5 -13 -33.5q0 -20 11 -29t39 -9z" />
<glyph unicode="&#171;" horiz-adv-x="550" d="M167 496h114l-127 -211l127 -213h-117l-125 210zM377 496h114l-127 -211l127 -213h-117l-125 210z" />
<glyph unicode="&#172;" horiz-adv-x="600" d="M90 410h420v-237h-107v130l-313 0z" />
<glyph unicode="&#173;" horiz-adv-x="400" d="M40 334h320v-107l-320 0z" />
<glyph unicode="&#174;" horiz-adv-x="600" d="M50 520q0 54 18 100q18 46 51 79.5q33 33.5 79 52q46 18.5 102 18.5q56 0 102 -18.5q46 -18.5 79 -52q33 -33.5 51 -79.5q18 -46 18 -100q0 -54 -18 -99q-18 -45 -51 -78q-33 -33 -79 -51.5q-46 -18.5 -102 -18.5q-56 0 -102 18.5q-46 18.5 -79 51.5q-33 33 -51 78q-18 45 -18 99zt0 0zM104 521q0 -43 14 -79q14 -36 40 -62q26 -26 62 -40.5q36 -14.5 80 -14.5q44 0 80.5 14.5q36.5 14.5 62 40.5q25.5 26 39.5 62q14 36 14 79q0 43 -14 79q-14 36 -39.5 62q-25.5 26 -62 40.5q-36.5 14.5 -80.5 14.5q-44 0 -80 -14.5q-36 -14.5 -62 -40.5q-26 -26 -40 -62q-14 -36 -14 -79zt0 0zM200 659h109q17 0 34 -3.5q17 -3.5 31 -12.5q14 -9 22.5 -26q8.5 -17 8.5 -44q0 -29 -13.5 -48.5q-13.5 -19.5 -33.5 -27.5l64 -104h-68l-55 94h-36v-94h-63zM301 537q16 0 28 7.5q12 7.5 12 27.5q0 22 -11.5 28q-11.5 6 -28.5 6h-39l0 -69z" />
<glyph unicode="&#175;" horiz-adv-x="320" d="M19 726h282v-84l-282 0z" />
<glyph unicode="&#176;" horiz-adv-x="400" d="M200 387q-34 0 -63.5 13q-29.5 13 -51.5 35q-22 22 -35 51.5q-13 29.5 -13 63.5q0 34 13 63.5q13 29.5 35 51.5q22 22 51.5 35q29.5 13 63.5 13q34 0 63.5 -13q29.5 -13 51.5 -35q22 -22 35 -51.5q13 -29.5 13 -63.5q0 -34 -13 -63.5q-13 -29.5 -35 -51.5q-22 -22 -51.5 -35q-29.5 -13 -63.5 -13zt0 0zM200 471q33 0 56.5 23q23.5 23 23.5 56q0 33 -23.5 56q-23.5 23 -56.5 23q-33 0 -56 -23q-23 -23 -23 -56q0 -33 23 -56t56 -23z" />
<glyph unicode="&#177;" horiz-adv-x="600" d="M90 489h156v156h108v-156h156v-108h-156v-120h-108v120h-156zM90 182h420v-107l-420 0z" />
<glyph unicode="&#178;" horiz-adv-x="450" d="M50 466l129 82q58 38 82 63.5q24 25.5 24 54.5q0 26 -20 42.5q-20 16.5 -68 16.5q-34 0 -68.5 -6.5q-34.5 -6.5 -62.5 -20.5l0 84q37 13 71.5 18.5q34.5 5.5 73.5 5.5q90 0 132 -33q42 -33 42 -90q0 -25 -8.5 -47q-8.5 -22 -27.5 -43.5q-19 -21.5 -49.5 -44q-30.5 -22.5 -73.5 -49.5l-59 -36v-1h223v-82l-340 0z" />
<glyph unicode="&#179;" horiz-adv-x="450" d="M118 629h74q43 0 65 11q22 11 22 37q0 26 -21 37.5q-21 11.5 -71 11.5q-36 0 -71 -4.5q-35 -4.5 -61 -14.5l0 79q35 12 78 16q43 4 81 4q46 0 78 -9q32 -9 51.5 -24q19.5 -15 28 -34.5q8.5 -19.5 8.5 -40.5q0 -42 -26.5 -63.5q-26.5 -21.5 -75.5 -35.5l0 -1q66 -11 89 -38q23 -27 23 -61q0 -59 -50.5 -92q-50.5 -33 -142.5 -33q-31 0 -70 3.5q-39 3.5 -77 15.5l0 82q34 -12 68.5 -16.5q34.5 -4.5 66.5 -4.5q59 0 81.5 14.5q22.5 14.5 22.5 38.5q0 30 -21 42q-21 12 -67 12l-83 0z" />
<glyph unicode="&#180;" horiz-adv-x="300" d="M115 769h156l-144 -151l-98 0z" />
<glyph unicode="&#181;" horiz-adv-x="585" d="M69 534h122v-310q0 -73 23 -100q23 -27 74 -27q51 0 78.5 30.5q27.5 30.5 27.5 96.5v310h122v-534h-117l-5 81q-44 -94 -152 -94q-29 0 -51 6l0 -173l-122 0z" />
<glyph unicode="&#182;" horiz-adv-x="570" d="M214 346q-42 0 -74.5 13q-32.5 13 -55 36q-22.5 23 -34 55q-11.5 32 -11.5 70q0 59 22.5 94.5q22.5 35.5 55.5 54.5q33 19 69 25q36 6 63 6h245v-880h-94v798h-92v-798l-94 0z" />
<glyph unicode="&#183;" horiz-adv-x="320" d="M160 271q-81 0 -81 80q0 81 81 81q81 0 81 -81q0 -80 -81 -80z" />
<glyph unicode="&#184;" horiz-adv-x="250" d="M103 -226q-27 0 -46.5 3.5q-19.5 3.5 -37.5 11.5l10 58q28 -12 60 -12q27 0 38 10q11 10 11 28q0 19 -11.5 28.5q-11.5 9.5 -40.5 9.5q-8 0 -17 -0.5q-9 -0.5 -15 -1.5l17 94h69l-9 -46q45 -1 72.5 -20.5q27.5 -19.5 27.5 -64.5q0 -45 -32.5 -71.5t-95.5 -26.5z" />
<glyph unicode="&#185;" horiz-adv-x="450" d="M219 697l-115 -62l-38 73l172 92h79v-420l-98 0z" />
<glyph unicode="&#186;" horiz-adv-x="370" d="M185 374q-81 0 -120.5 42.5q-39.5 42.5 -39.5 123.5q0 80 40 123q40 43 120 43q81 0 120.5 -42.5q39.5 -42.5 39.5 -123.5q0 -80 -40 -123q-40 -43 -120 -43zt0 0zM185 444q36 0 56.5 21q20.5 21 20.5 75q0 54 -20.5 75q-20.5 21 -56.5 21q-36 0 -56.5 -21q-20.5 -21 -20.5 -75q0 -54 20.5 -75t56.5 -21z" />
<glyph unicode="&#187;" horiz-adv-x="550" d="M186 282l-127 214h117l125 -211l-128 -213h-114zM396 282l-127 214h117l125 -211l-128 -213l-114 0z" />
<glyph unicode="&#188;" horiz-adv-x="950" d="M651 700h89l-451 -700h-89zM194 597l-115 -62l-38 73l172 92h79v-420h-98zM487 162l235 258h113v-255h57v-77h-57v-88h-95v88h-253zM741 339h-1l-160 -174l161 0z" />
<glyph unicode="&#189;" horiz-adv-x="950" d="M628 700h89l-451 -700h-89zM186 597l-115 -62l-38 73l172 92h79v-420h-98zM560 86l129 82q58 38 82 63.5q24 25.5 24 54.5q0 26 -20 42.5q-20 16.5 -68 16.5q-34 0 -68.5 -6.5q-34.5 -6.5 -62.5 -20.5l0 84q37 13 71.5 18.5q34.5 5.5 73.5 5.5q90 0 132 -33q42 -33 42 -90q0 -25 -8.5 -47q-8.5 -22 -27.5 -43.5q-19 -21.5 -49.5 -44q-30.5 -22.5 -73.5 -49.5l-59 -36v-1h223v-82l-340 0z" />
<glyph unicode="&#190;" horiz-adv-x="950" d="M674 700h89l-451 -700h-89zM502 162l235 258h113v-255h57v-77h-57v-88h-95v88h-253zM756 339h-1l-160 -174h161zM106 529h74q43 0 65 11q22 11 22 37q0 26 -21 37.5q-21 11.5 -71 11.5q-36 0 -71 -4.5q-35 -4.5 -61 -14.5l0 79q35 12 78 16q43 4 81 4q46 0 78 -9q32 -9 51.5 -24q19.5 -15 28 -34.5q8.5 -19.5 8.5 -40.5q0 -42 -26.5 -63.5q-26.5 -21.5 -75.5 -35.5l0 -1q66 -11 89 -38q23 -27 23 -61q0 -59 -50.5 -92q-50.5 -33 -142.5 -33q-31 0 -70 3.5q-39 3.5 -77 15.5l0 82q34 -12 68.5 -16.5q34.5 -4.5 66.5 -4.5q59 0 81.5 14.5q22.5 14.5 22.5 38.5q0 30 -21 42q-21 12 -67 12l-83 0z" />
<glyph unicode="&#191;" horiz-adv-x="480" d="M285 540q81 0 81 -81q0 -39 -20.5 -60q-20.5 -21 -60.5 -21q-40 0 -60.5 21q-20.5 21 -20.5 60q0 81 81 81zt0 0zM344 303q0 -44 -12.5 -74q-12.5 -30 -31.5 -51q-19 -21 -40.5 -37.5q-21.5 -16.5 -40.5 -34q-19 -17.5 -31.5 -39.5q-12.5 -22 -12.5 -54q0 -45 25 -68.5q25 -23.5 80 -23.5q49 0 87 16q38 16 68 37l0 -133q-32 -14 -75 -24q-43 -10 -97 -10q-115 0 -166.5 48q-51.5 48 -51.5 140q0 51 13.5 85q13.5 34 34 57.5q20.5 23.5 44.5 41q24 17.5 44.5 34.5q20.5 17 34 38q13.5 21 13.5 52z" />
<glyph unicode="&#192;" horiz-adv-x="640" d="M249 700h143l233 -700h-133l-52 166h-246l-52 -166h-127zM227 273h180l-89 287zM125 915h160l92 -150l-102 0z" />
<glyph unicode="&#193;" horiz-adv-x="640" d="M249 700h143l233 -700h-133l-52 166h-246l-52 -166h-127zM227 273h180l-89 287zM355 915h158l-152 -150l-100 0z" />
<glyph unicode="&#194;" horiz-adv-x="640" d="M249 700h143l233 -700h-133l-52 166h-246l-52 -166h-127zM227 273h180l-89 287zM255 915h130l119 -150h-103l-81 85l-83 -85l-101 0z" />
<glyph unicode="&#195;" horiz-adv-x="640" d="M249 700h143l233 -700h-133l-52 166h-246l-52 -166h-127zM227 273h180l-89 287zM137 778q3 57 33 86.5q30 29.5 72 29.5q21 0 41.5 -6q20.5 -6 43.5 -17q24 -11 37.5 -16q13.5 -5 27.5 -5q15 0 27 10q12 10 16 33l68 -12q-4 -54 -33.5 -84.5q-29.5 -30.5 -71.5 -30.5q-22 0 -39.5 3.5q-17.5 3.5 -45.5 17.5q-21 10 -35 17q-14 7 -28 7q-14 0 -26.5 -10.5q-12.5 -10.5 -17.5 -34.5z" />
<glyph unicode="&#196;" horiz-adv-x="640" d="M249 700h143l233 -700h-133l-52 166h-246l-52 -166h-127zM227 273h180l-89 287zM212 773q-73 0 -73 67q0 67 73 67q73 0 73 -67q0 -67 -73 -67zt0 0zM429 773q-73 0 -73 67q0 67 73 67q73 0 73 -67q0 -67 -73 -67z" />
<glyph unicode="&#197;" horiz-adv-x="640" d="M249 700h143l233 -700h-133l-52 166h-246l-52 -166h-127zM227 273h180l-89 287zM210 840q0 47 30.5 77q30.5 30 79.5 30q49 0 79.5 -30q30.5 -30 30.5 -77q0 -47 -30.5 -77q-30.5 -30 -79.5 -30q-49 0 -79.5 30q-30.5 30 -30.5 77zt0 0zM273 840q0 -22 12.5 -34.5q12.5 -12.5 34.5 -12.5q22 0 34.5 12.5q12.5 12.5 12.5 34.5q0 22 -12.5 34.5q-12.5 12.5 -34.5 12.5q-22 0 -34.5 -12.5t-12.5 -34.5z" />
<glyph unicode="&#198;" horiz-adv-x="935" d="M449 166h-218l-85 -166h-131l368 700h502v-114h-308v-176h268v-107h-268v-189h308v-114h-436zM449 273v316l-163 -316z" />
<glyph unicode="&#199;" horiz-adv-x="575" d="M335 -226q-27 0 -47.5 3.5q-20.5 3.5 -37.5 11.5l9 59q28 -12 61 -12q29 0 40 9.5q11 9.5 11 27.5q0 19 -11.5 28q-11.5 9 -42.5 9q-8 0 -16.5 -0.5q-8.5 -0.5 -15.5 -1.5l15 82q-65 7 -113 31q-48 24 -79.5 68.5q-31.5 44.5 -47 110q-15.5 65.5 -15.5 155.5q0 189 79 273.5q79 84.5 236 84.5q36 0 67.5 -5q31.5 -5 54.5 -11q27 -7 50 -16l0 -129q-29 17 -69.5 29.5q-40.5 12.5 -98.5 12.5q-47 0 -82 -12.5q-35 -12.5 -58.5 -41q-23.5 -28.5 -35 -74q-11.5 -45.5 -11.5 -111.5q0 -69 12 -117q12 -48 35.5 -77q23.5 -29 58.5 -42q35 -13 82 -13q59 0 102.5 16q43.5 16 67.5 33l0 -129q-20 -11 -46 -19q-22 -8 -52.5 -13.5q-30.5 -5.5 -67.5 -6.5l-5 -30q45 -1 72.5 -20.5q27.5 -19.5 27.5 -64.5q0 -45 -32.5 -71.5t-96.5 -26.5z" />
<glyph unicode="&#200;" horiz-adv-x="575" d="M89 700h436v-114h-308v-176h268v-107h-268v-189h308v-114h-436zM115 915h160l92 -150l-102 0z" />
<glyph unicode="&#201;" horiz-adv-x="575" d="M89 700h436v-114h-308v-176h268v-107h-268v-189h308v-114h-436zM343 915h158l-152 -150l-100 0z" />
<glyph unicode="&#202;" horiz-adv-x="575" d="M89 700h436v-114h-308v-176h268v-107h-268v-189h308v-114h-436zM242 915h130l119 -150h-103l-81 85l-83 -85l-101 0z" />
<glyph unicode="&#203;" horiz-adv-x="575" d="M89 700h436v-114h-308v-176h268v-107h-268v-189h308v-114h-436zM199 773q-73 0 -73 67q0 67 73 67q73 0 73 -67q0 -67 -73 -67zt0 0zM416 773q-73 0 -73 67q0 67 73 67q73 0 73 -67q0 -67 -73 -67z" />
<glyph unicode="&#204;" horiz-adv-x="330" d="M101 700h128v-700h-128zM-36 915h160l92 -150l-102 0z" />
<glyph unicode="&#205;" horiz-adv-x="330" d="M101 700h128v-700h-128zM209 915h158l-152 -150l-100 0z" />
<glyph unicode="&#206;" horiz-adv-x="330" d="M101 700h128v-700h-128zM100 915h130l119 -150h-103l-81 85l-83 -85l-101 0z" />
<glyph unicode="&#207;" horiz-adv-x="330" d="M101 700h128v-700h-128zM57 773q-73 0 -73 67q0 67 73 67q73 0 73 -67q0 -67 -73 -67zt0 0zM274 773q-73 0 -73 67q0 67 73 67q73 0 73 -67q0 -67 -73 -67z" />
<glyph unicode="&#208;" horiz-adv-x="690" d="M13 401h86v294q33 2 68 5q30 2 66.5 4q36.5 2 73.5 2q89 0 153 -19.5q64 -19.5 105 -61.5q41 -42 60.5 -108.5q19.5 -66.5 19.5 -159.5q0 -187 -85.5 -275q-85.5 -88 -259.5 -88q-34 0 -69.5 1.5q-35.5 1.5 -64.5 3.5q-34 3 -67 6l0 304h-86zM513 357q0 64 -11.5 108q-11.5 44 -36 71q-24.5 27 -63 39q-38.5 12 -92.5 12q-16 0 -31 -0.5q-15 -0.5 -26 -1.5q-14 -1 -26 -2l0 -182h141v-92h-141v-192q11 -1 23 -2q11 -1 24.5 -1.5q13.5 -0.5 28.5 -0.5q54 0 93.5 13q39.5 13 65.5 42.5q26 29.5 38.5 76t12.5 112.5z" />
<glyph unicode="&#209;" horiz-adv-x="740" d="M89 700h150l230 -397q12 -22 22 -42q10 -20 18 -36q9 -18 16 -36l2 0q-1 18 -2 36q-1 16 -1.5 36q-0.5 20 -0.5 42v397h128v-700h-150l-230 397q-13 23 -23 43q-10 20 -18 36q-9 18 -15 35l-2 0q1 -17 2 -35q1 -16 1.5 -36q0.5 -20 0.5 -43v-397h-128zM187 778q3 57 33 86.5q30 29.5 72 29.5q21 0 41.5 -6q20.5 -6 43.5 -17q24 -11 37.5 -16q13.5 -5 27.5 -5q15 0 27 10q12 10 16 33l68 -12q-4 -54 -33.5 -84.5q-29.5 -30.5 -71.5 -30.5q-22 0 -39.5 3.5q-17.5 3.5 -45.5 17.5q-21 10 -35 17q-14 7 -28 7q-14 0 -26.5 -10.5q-12.5 -10.5 -17.5 -34.5z" />
<glyph unicode="&#210;" horiz-adv-x="710" d="M355 -13q-153 0 -231.5 85.5q-78.5 85.5 -78.5 277.5q0 190 79.5 276.5q79.5 86.5 230.5 86.5q78 0 136.5 -20q58.5 -20 97 -63.5q38.5 -43.5 57.5 -112.5q19 -69 19 -167q0 -190 -79.5 -276.5q-79.5 -86.5 -230.5 -86.5zt0 0zM355 102q44 0 77 12.5q33 12.5 55.5 41.5q22.5 29 34 76.5q11.5 47.5 11.5 117.5q0 70 -11.5 117.5q-11.5 47.5 -34 76.5q-22.5 29 -55.5 41.5q-33 12.5 -77 12.5q-44 0 -77 -12.5q-33 -12.5 -55.5 -41.5q-22.5 -29 -34 -76.5q-11.5 -47.5 -11.5 -117.5q0 -69 11.5 -116.5q11.5 -47.5 34 -77q22.5 -29.5 56 -42q33.5 -12.5 76.5 -12.5zt0 0zM163 915h160l92 -150l-102 0z" />
<glyph unicode="&#211;" horiz-adv-x="710" d="M355 -13q-153 0 -231.5 85.5q-78.5 85.5 -78.5 277.5q0 190 79.5 276.5q79.5 86.5 230.5 86.5q78 0 136.5 -20q58.5 -20 97 -63.5q38.5 -43.5 57.5 -112.5q19 -69 19 -167q0 -190 -79.5 -276.5q-79.5 -86.5 -230.5 -86.5zt0 0zM355 102q44 0 77 12.5q33 12.5 55.5 41.5q22.5 29 34 76.5q11.5 47.5 11.5 117.5q0 70 -11.5 117.5q-11.5 47.5 -34 76.5q-22.5 29 -55.5 41.5q-33 12.5 -77 12.5q-44 0 -77 -12.5q-33 -12.5 -55.5 -41.5q-22.5 -29 -34 -76.5q-11.5 -47.5 -11.5 -117.5q0 -69 11.5 -116.5q11.5 -47.5 34 -77q22.5 -29.5 56 -42q33.5 -12.5 76.5 -12.5zt0 0zM390 915h158l-152 -150l-100 0z" />
<glyph unicode="&#212;" horiz-adv-x="710" d="M355 -13q-153 0 -231.5 85.5q-78.5 85.5 -78.5 277.5q0 190 79.5 276.5q79.5 86.5 230.5 86.5q78 0 136.5 -20q58.5 -20 97 -63.5q38.5 -43.5 57.5 -112.5q19 -69 19 -167q0 -190 -79.5 -276.5q-79.5 -86.5 -230.5 -86.5zt0 0zM355 102q44 0 77 12.5q33 12.5 55.5 41.5q22.5 29 34 76.5q11.5 47.5 11.5 117.5q0 70 -11.5 117.5q-11.5 47.5 -34 76.5q-22.5 29 -55.5 41.5q-33 12.5 -77 12.5q-44 0 -77 -12.5q-33 -12.5 -55.5 -41.5q-22.5 -29 -34 -76.5q-11.5 -47.5 -11.5 -117.5q0 -69 11.5 -116.5q11.5 -47.5 34 -77q22.5 -29.5 56 -42q33.5 -12.5 76.5 -12.5zt0 0zM290 915h130l119 -150h-103l-81 85l-83 -85l-101 0z" />
<glyph unicode="&#213;" horiz-adv-x="710" d="M355 -13q-153 0 -231.5 85.5q-78.5 85.5 -78.5 277.5q0 190 79.5 276.5q79.5 86.5 230.5 86.5q78 0 136.5 -20q58.5 -20 97 -63.5q38.5 -43.5 57.5 -112.5q19 -69 19 -167q0 -190 -79.5 -276.5q-79.5 -86.5 -230.5 -86.5zt0 0zM355 102q44 0 77 12.5q33 12.5 55.5 41.5q22.5 29 34 76.5q11.5 47.5 11.5 117.5q0 70 -11.5 117.5q-11.5 47.5 -34 76.5q-22.5 29 -55.5 41.5q-33 12.5 -77 12.5q-44 0 -77 -12.5q-33 -12.5 -55.5 -41.5q-22.5 -29 -34 -76.5q-11.5 -47.5 -11.5 -117.5q0 -69 11.5 -116.5q11.5 -47.5 34 -77q22.5 -29.5 56 -42q33.5 -12.5 76.5 -12.5zt0 0zM172 778q3 57 33 86.5q30 29.5 72 29.5q21 0 41.5 -6q20.5 -6 43.5 -17q24 -11 37.5 -16q13.5 -5 27.5 -5q15 0 27 10q12 10 16 33l68 -12q-4 -54 -33.5 -84.5q-29.5 -30.5 -71.5 -30.5q-22 0 -39.5 3.5q-17.5 3.5 -45.5 17.5q-21 10 -35 17q-14 7 -28 7q-14 0 -26.5 -10.5q-12.5 -10.5 -17.5 -34.5z" />
<glyph unicode="&#214;" horiz-adv-x="710" d="M355 -13q-153 0 -231.5 85.5q-78.5 85.5 -78.5 277.5q0 190 79.5 276.5q79.5 86.5 230.5 86.5q78 0 136.5 -20q58.5 -20 97 -63.5q38.5 -43.5 57.5 -112.5q19 -69 19 -167q0 -190 -79.5 -276.5q-79.5 -86.5 -230.5 -86.5zt0 0zM355 102q44 0 77 12.5q33 12.5 55.5 41.5q22.5 29 34 76.5q11.5 47.5 11.5 117.5q0 70 -11.5 117.5q-11.5 47.5 -34 76.5q-22.5 29 -55.5 41.5q-33 12.5 -77 12.5q-44 0 -77 -12.5q-33 -12.5 -55.5 -41.5q-22.5 -29 -34 -76.5q-11.5 -47.5 -11.5 -117.5q0 -69 11.5 -116.5q11.5 -47.5 34 -77q22.5 -29.5 56 -42q33.5 -12.5 76.5 -12.5zt0 0zM247 773q-73 0 -73 67q0 67 73 67q73 0 73 -67q0 -67 -73 -67zt0 0zM464 773q-73 0 -73 67q0 67 73 67q73 0 73 -67q0 -67 -73 -67z" />
<glyph unicode="&#215;" horiz-adv-x="600" d="M101 233l127 127l-127 127l72 72l127 -127l127 127l72 -72l-127 -127l127 -127l-72 -72l-127 127l-127 -127z" />
<glyph unicode="&#216;" horiz-adv-x="710" d="M355 -13q-102 0 -172 38l-46 -69l-62 44l48 72q-78 88 -78 278q0 190 79.5 276.5q79.5 86.5 230.5 86.5q52 0 95 -8.5q43 -8.5 78 -27.5l45 67l62 -44l-47 -70q77 -86 77 -280q0 -190 -79.5 -276.5q-79.5 -86.5 -230.5 -86.5zt0 0zM355 102q44 0 77 12.5q33 12.5 55.5 41.5q22.5 29 34 76.5q11.5 47.5 11.5 117.5q0 101 -26 159l-255 -381q40 -26 103 -26zt0 0zM177 350q0 -103 25 -159l255 381q-39 26 -102 26q-44 0 -77 -12.5q-33 -12.5 -55.5 -41.5q-22.5 -29 -34 -76.5t-11.5 -117.5z" />
<glyph unicode="&#217;" horiz-adv-x="670" d="M335 -13q-68 0 -117 16q-49 16 -80.5 50.5q-31.5 34.5 -47 89q-15.5 54.5 -15.5 132.5v425h127v-414q0 -53 7.5 -88q7.5 -35 23.5 -55.5q16 -20.5 41 -28.5q25 -8 61 -8q36 0 61.5 8q25.5 8 41.5 28q16 20 23 55q7 35 7 89v414h127v-425q0 -77 -15.5 -132q-15.5 -55 -47.5 -89.5q-32 -34.5 -81 -50.5q-49 -16 -116 -16zt0 0zM143 915h160l92 -150l-102 0z" />
<glyph unicode="&#218;" horiz-adv-x="670" d="M335 -13q-68 0 -117 16q-49 16 -80.5 50.5q-31.5 34.5 -47 89q-15.5 54.5 -15.5 132.5v425h127v-414q0 -53 7.5 -88q7.5 -35 23.5 -55.5q16 -20.5 41 -28.5q25 -8 61 -8q36 0 61.5 8q25.5 8 41.5 28q16 20 23 55q7 35 7 89v414h127v-425q0 -77 -15.5 -132q-15.5 -55 -47.5 -89.5q-32 -34.5 -81 -50.5q-49 -16 -116 -16zt0 0zM370 915h158l-152 -150l-100 0z" />
<glyph unicode="&#219;" horiz-adv-x="670" d="M335 -13q-68 0 -117 16q-49 16 -80.5 50.5q-31.5 34.5 -47 89q-15.5 54.5 -15.5 132.5v425h127v-414q0 -53 7.5 -88q7.5 -35 23.5 -55.5q16 -20.5 41 -28.5q25 -8 61 -8q36 0 61.5 8q25.5 8 41.5 28q16 20 23 55q7 35 7 89v414h127v-425q0 -77 -15.5 -132q-15.5 -55 -47.5 -89.5q-32 -34.5 -81 -50.5q-49 -16 -116 -16zt0 0zM270 915h130l119 -150h-103l-81 85l-83 -85l-101 0z" />
<glyph unicode="&#220;" horiz-adv-x="670" d="M335 -13q-68 0 -117 16q-49 16 -80.5 50.5q-31.5 34.5 -47 89q-15.5 54.5 -15.5 132.5v425h127v-414q0 -53 7.5 -88q7.5 -35 23.5 -55.5q16 -20.5 41 -28.5q25 -8 61 -8q36 0 61.5 8q25.5 8 41.5 28q16 20 23 55q7 35 7 89v414h127v-425q0 -77 -15.5 -132q-15.5 -55 -47.5 -89.5q-32 -34.5 -81 -50.5q-49 -16 -116 -16zt0 0zM227 773q-73 0 -73 67q0 67 73 67q73 0 73 -67q0 -67 -73 -67zt0 0zM444 773q-73 0 -73 67q0 67 73 67q73 0 73 -67q0 -67 -73 -67z" />
<glyph unicode="&#221;" horiz-adv-x="610" d="M246 259l-231 441h146l150 -298l144 298h140l-221 -441v-259h-128zM340 915h158l-152 -150l-100 0z" />
<glyph unicode="&#222;" horiz-adv-x="620" d="M89 700h128v-95q20 2 40 3q20 1 41 1q76 0 129 -14.5q53 -14.5 86 -44.5q33 -30 47.5 -76q14.5 -46 14.5 -109q0 -128 -66 -191q-66 -63 -211 -63q-29 0 -49.5 1.5q-20.5 1.5 -31.5 1.5l0 -114h-128zM443 365q0 67 -31.5 96q-31.5 29 -113.5 29q-29 0 -49.5 -1.5q-20.5 -1.5 -31.5 -2.5l0 -253q11 0 31.5 -1.5q20.5 -1.5 49.5 -1.5q81 0 113 31t32 104z" />
<glyph unicode="&#223;" horiz-adv-x="615" d="M69 510q0 129 62.5 194.5q62.5 65.5 181.5 65.5q110 0 166.5 -53q56.5 -53 56.5 -143q0 -63 -27 -106q-27 -43 -75 -62l0 -2q66 -10 101.5 -58q35.5 -48 35.5 -133q0 -118 -53.5 -172q-53.5 -54 -166.5 -54q-31 0 -54 3q-23 3 -43 9l0 113q14 -5 34 -8q20 -3 45 -3q54 0 80.5 28.5q26.5 28.5 26.5 92.5q0 66 -27.5 95.5q-27.5 29.5 -85.5 29.5h-52v100h41q42 0 65.5 25q23.5 25 23.5 81q0 103 -98 103q-56 0 -84 -33q-28 -33 -28 -113v-510l-126 0z" />
<glyph unicode="&#224;" horiz-adv-x="535" d="M198 -13q-78 0 -118.5 41q-40.5 41 -40.5 120q0 42 11 73q11 31 36 51.5q25 20.5 65 31q40 10.5 98 10.5h100v36q0 47 -23 66.5q-23 19.5 -85 19.5q-47 0 -89.5 -12q-42.5 -12 -68.5 -29l0 120q30 13 77 22q47 9 101 9q58 0 98.5 -10q40.5 -10 65 -33q24.5 -23 35.5 -60q11 -37 11 -91v-352h-110l-5 85q-15 -40 -54 -69q-39 -29 -104 -29zt0 0zM242 91q50 0 78.5 29.5q28.5 29.5 28.5 86.5v29h-86q-56 0 -77 -18.5q-21 -18.5 -21 -58.5q0 -34 18 -51q18 -17 59 -17zt0 0zM88 769h158l84 -151l-100 0z" />
<glyph unicode="&#225;" horiz-adv-x="535" d="M198 -13q-78 0 -118.5 41q-40.5 41 -40.5 120q0 42 11 73q11 31 36 51.5q25 20.5 65 31q40 10.5 98 10.5h100v36q0 47 -23 66.5q-23 19.5 -85 19.5q-47 0 -89.5 -12q-42.5 -12 -68.5 -29l0 120q30 13 77 22q47 9 101 9q58 0 98.5 -10q40.5 -10 65 -33q24.5 -23 35.5 -60q11 -37 11 -91v-352h-110l-5 85q-15 -40 -54 -69q-39 -29 -104 -29zt0 0zM242 91q50 0 78.5 29.5q28.5 29.5 28.5 86.5v29h-86q-56 0 -77 -18.5q-21 -18.5 -21 -58.5q0 -34 18 -51q18 -17 59 -17zt0 0zM300 769h156l-144 -151l-98 0z" />
<glyph unicode="&#226;" horiz-adv-x="535" d="M198 -13q-78 0 -118.5 41q-40.5 41 -40.5 120q0 42 11 73q11 31 36 51.5q25 20.5 65 31q40 10.5 98 10.5h100v36q0 47 -23 66.5q-23 19.5 -85 19.5q-47 0 -89.5 -12q-42.5 -12 -68.5 -29l0 120q30 13 77 22q47 9 101 9q58 0 98.5 -10q40.5 -10 65 -33q24.5 -23 35.5 -60q11 -37 11 -91v-352h-110l-5 85q-15 -40 -54 -69q-39 -29 -104 -29zt0 0zM242 91q50 0 78.5 29.5q28.5 29.5 28.5 86.5v29h-86q-56 0 -77 -18.5q-21 -18.5 -21 -58.5q0 -34 18 -51q18 -17 59 -17zt0 0zM208 769h128l112 -151h-101l-74 88l-78 -88l-99 0z" />
<glyph unicode="&#227;" horiz-adv-x="535" d="M198 -13q-78 0 -118.5 41q-40.5 41 -40.5 120q0 42 11 73q11 31 36 51.5q25 20.5 65 31q40 10.5 98 10.5h100v36q0 47 -23 66.5q-23 19.5 -85 19.5q-47 0 -89.5 -12q-42.5 -12 -68.5 -29l0 120q30 13 77 22q47 9 101 9q58 0 98.5 -10q40.5 -10 65 -33q24.5 -23 35.5 -60q11 -37 11 -91v-352h-110l-5 85q-15 -40 -54 -69q-39 -29 -104 -29zt0 0zM242 91q50 0 78.5 29.5q28.5 29.5 28.5 86.5v29h-86q-56 0 -77 -18.5q-21 -18.5 -21 -58.5q0 -34 18 -51q18 -17 59 -17zt0 0zM95 632q2 56 30 86q28 30 70 30q20 0 39 -6.5q19 -6.5 42 -17.5q24 -11 35.5 -16.5q11.5 -5.5 25.5 -5.5q31 0 38 45l68 -12q-4 -54 -31 -84.5q-27 -30.5 -68 -30.5q-11 0 -20 1q-9 1 -18 3.5q-9 2.5 -19.5 6.5q-10.5 4 -24.5 11q-21 10 -33.5 17q-12.5 7 -26.5 7q-13 0 -23.5 -11q-10.5 -11 -15.5 -35z" />
<glyph unicode="&#228;" horiz-adv-x="535" d="M198 -13q-78 0 -118.5 41q-40.5 41 -40.5 120q0 42 11 73q11 31 36 51.5q25 20.5 65 31q40 10.5 98 10.5h100v36q0 47 -23 66.5q-23 19.5 -85 19.5q-47 0 -89.5 -12q-42.5 -12 -68.5 -29l0 120q30 13 77 22q47 9 101 9q58 0 98.5 -10q40.5 -10 65 -33q24.5 -23 35.5 -60q11 -37 11 -91v-352h-110l-5 85q-15 -40 -54 -69q-39 -29 -104 -29zt0 0zM242 91q50 0 78.5 29.5q28.5 29.5 28.5 86.5v29h-86q-56 0 -77 -18.5q-21 -18.5 -21 -58.5q0 -34 18 -51q18 -17 59 -17zt0 0zM168 628q-71 0 -71 66q0 65 71 65q71 0 71 -65q0 -66 -71 -66zt0 0zM376 628q-71 0 -71 66q0 65 71 65q71 0 71 -65q0 -66 -71 -66z" />
<glyph unicode="&#229;" horiz-adv-x="535" d="M198 -13q-78 0 -118.5 41q-40.5 41 -40.5 120q0 42 11 73q11 31 36 51.5q25 20.5 65 31q40 10.5 98 10.5h100v36q0 47 -23 66.5q-23 19.5 -85 19.5q-47 0 -89.5 -12q-42.5 -12 -68.5 -29l0 120q30 13 77 22q47 9 101 9q58 0 98.5 -10q40.5 -10 65 -33q24.5 -23 35.5 -60q11 -37 11 -91v-352h-110l-5 85q-15 -40 -54 -69q-39 -29 -104 -29zt0 0zM242 91q50 0 78.5 29.5q28.5 29.5 28.5 86.5v29h-86q-56 0 -77 -18.5q-21 -18.5 -21 -58.5q0 -34 18 -51q18 -17 59 -17zt0 0zM166 694q0 47 29.5 76q29.5 29 78.5 29q49 0 78.5 -29q29.5 -29 29.5 -76q0 -48 -29.5 -76.5q-29.5 -28.5 -78.5 -28.5q-49 0 -78.5 28.5q-29.5 28.5 -29.5 76.5zt0 0zM228 694q0 -22 12.5 -34q12.5 -12 33.5 -12q21 0 33.5 12.5q12.5 12.5 12.5 33.5q0 21 -12.5 33.5q-12.5 12.5 -33.5 12.5q-21 0 -33.5 -12.5t-12.5 -33.5z" />
<glyph unicode="&#230;" horiz-adv-x="860" d="M606 -13q-138 0 -195 84q-66 -84 -196 -84q-91 0 -133.5 41q-42.5 41 -42.5 120q0 42 11 73q11 31 36.5 51.5q25.5 20.5 66 31q40.5 10.5 100.5 10.5h103v36q0 47 -23.5 66.5q-23.5 19.5 -87.5 19.5q-50 0 -93 -12q-43 -12 -69 -29l0 120q30 13 77.5 22q47.5 9 104.5 9q65 0 106.5 -13q41.5 -13 64.5 -44q58 57 157 57q122 0 175 -64.5q53 -64.5 53 -188.5v-58h-344q3 -76 37 -110q34 -34 106 -34q25 0 49.5 4q24.5 4 46.5 11q22 7 41 17q19 10 32 22l0 -113q-27 -18 -71 -31.5q-44 -13.5 -112 -13.5zt0 0zM593 450q-55 0 -83.5 -32.5q-28.5 -32.5 -32.5 -104.5l222 0q0 67 -22.5 102q-22.5 35 -83.5 35zt0 0zM245 91q53 0 82 29.5q29 29.5 29 86.5v29h-89q-59 0 -80.5 -18.5q-21.5 -18.5 -21.5 -58.5q0 -34 18.5 -51t61.5 -17z" />
<glyph unicode="&#231;" horiz-adv-x="475" d="M270 -226q-27 0 -46.5 3.5q-19.5 3.5 -37.5 11.5l10 58q28 -12 60 -12q27 0 38 10q11 10 11 28q0 19 -11.5 28.5q-11.5 9.5 -40.5 9.5q-8 0 -17 -0.5q-9 -0.5 -15 -1.5l15 82q-101 13 -149 79q-48 66 -48 202q0 142 64 208q64 66 189 66q31 0 57 -3.5q26 -3.5 45 -8.5q19 -5 30.5 -9.5q11.5 -4.5 14.5 -5.5l0 -127q-24 18 -56.5 31q-32.5 13 -77.5 13q-72 0 -106 -37.5q-34 -37.5 -34 -126.5q0 -95 36.5 -135q36.5 -40 113.5 -40q38 0 74 13q36 13 56 32l0 -121q-3 -2 -14.5 -7q-11.5 -5 -29.5 -11q-18 -6 -42.5 -10.5q-24.5 -4.5 -54.5 -5.5l-6 -30q45 -1 72.5 -20.5q27.5 -19.5 27.5 -64.5q0 -45 -32.5 -71.5t-95.5 -26.5z" />
<glyph unicode="&#232;" horiz-adv-x="550" d="M293 -13q-136 0 -195 70q-59 70 -59 217q0 138 63.5 205q63.5 67 177.5 67q124 0 177.5 -64.5q53.5 -64.5 53.5 -188.5v-58h-350q3 -76 37.5 -110q34.5 -34 108.5 -34q51 0 98.5 16.5q47.5 16.5 73.5 40.5l0 -113q-29 -19 -73 -33.5q-44 -14.5 -113 -14.5zt0 0zM280 450q-57 0 -86 -32.5q-29 -32.5 -33 -104.5l228 0q0 67 -23 102q-23 35 -86 35zt0 0zM93 769h158l84 -151l-100 0z" />
<glyph unicode="&#233;" horiz-adv-x="550" d="M293 -13q-136 0 -195 70q-59 70 -59 217q0 138 63.5 205q63.5 67 177.5 67q124 0 177.5 -64.5q53.5 -64.5 53.5 -188.5v-58h-350q3 -76 37.5 -110q34.5 -34 108.5 -34q51 0 98.5 16.5q47.5 16.5 73.5 40.5l0 -113q-29 -19 -73 -33.5q-44 -14.5 -113 -14.5zt0 0zM280 450q-57 0 -86 -32.5q-29 -32.5 -33 -104.5l228 0q0 67 -23 102q-23 35 -86 35zt0 0zM305 769h156l-144 -151l-98 0z" />
<glyph unicode="&#234;" horiz-adv-x="550" d="M293 -13q-136 0 -195 70q-59 70 -59 217q0 138 63.5 205q63.5 67 177.5 67q124 0 177.5 -64.5q53.5 -64.5 53.5 -188.5v-58h-350q3 -76 37.5 -110q34.5 -34 108.5 -34q51 0 98.5 16.5q47.5 16.5 73.5 40.5l0 -113q-29 -19 -73 -33.5q-44 -14.5 -113 -14.5zt0 0zM280 450q-57 0 -86 -32.5q-29 -32.5 -33 -104.5l228 0q0 67 -23 102q-23 35 -86 35zt0 0zM213 769h128l112 -151h-101l-74 88l-78 -88l-99 0z" />
<glyph unicode="&#235;" horiz-adv-x="550" d="M293 -13q-136 0 -195 70q-59 70 -59 217q0 138 63.5 205q63.5 67 177.5 67q124 0 177.5 -64.5q53.5 -64.5 53.5 -188.5v-58h-350q3 -76 37.5 -110q34.5 -34 108.5 -34q51 0 98.5 16.5q47.5 16.5 73.5 40.5l0 -113q-29 -19 -73 -33.5q-44 -14.5 -113 -14.5zt0 0zM280 450q-57 0 -86 -32.5q-29 -32.5 -33 -104.5l228 0q0 67 -23 102q-23 35 -86 35zt0 0zM173 628q-71 0 -71 66q0 65 71 65q71 0 71 -65q0 -66 -71 -66zt0 0zM381 628q-71 0 -71 66q0 65 71 65q71 0 71 -65q0 -66 -71 -66z" />
<glyph unicode="&#236;" horiz-adv-x="290" d="M84 534h122v-534h-122zM-47 769h158l84 -151l-100 0z" />
<glyph unicode="&#237;" horiz-adv-x="290" d="M84 534h122v-534h-122zM182 769h156l-144 -151l-98 0z" />
<glyph unicode="&#238;" horiz-adv-x="290" d="M84 534h122v-534h-122zM81 769h128l112 -151h-101l-74 88l-78 -88l-99 0z" />
<glyph unicode="&#239;" horiz-adv-x="290" d="M84 534h122v-534h-122zM41 628q-71 0 -71 66q0 65 71 65q71 0 71 -65q0 -66 -71 -66zt0 0zM249 628q-71 0 -71 66q0 65 71 65q71 0 71 -65q0 -66 -71 -66z" />
<glyph unicode="&#240;" horiz-adv-x="585" d="M135 616l90 48q-60 32 -128 47l40 72q104 -25 181 -69l129 70l28 -55l-100 -53q86 -68 126 -166q40 -98 40 -228q0 -83 -21 -139.5q-21 -56.5 -56.5 -91q-35.5 -34.5 -82 -49.5q-46.5 -15 -98.5 -15q-64 0 -110 19.5q-46 19.5 -76 55q-30 35.5 -44 85.5q-14 50 -14 111q0 127 54 194.5q54 67.5 168 67.5q33 0 71.5 -11.5q38.5 -11.5 72.5 -49.5l3 2q-13 50 -45.5 92q-32.5 42 -77.5 75l-123 -66zM290 97q65 0 95 36.5q30 36.5 30 125.5q0 82 -27.5 116.5q-27.5 34.5 -97.5 34.5q-32 0 -55.5 -7q-23.5 -7 -39 -24.5q-15.5 -17.5 -23 -46.5q-7.5 -29 -7.5 -73q0 -89 32 -125.5t93 -36.5z" />
<glyph unicode="&#241;" horiz-adv-x="585" d="M69 534h117l5 -82q43 94 156 94q85 0 129.5 -45.5q44.5 -45.5 44.5 -149.5v-351h-122v310q0 36 -6 60.5q-6 24.5 -18 39q-12 14.5 -31 20.5q-19 6 -46 6q-51 0 -79 -30q-28 -30 -28 -96v-310h-122zM120 632q2 56 30 86q28 30 70 30q20 0 39 -6.5q19 -6.5 42 -17.5q24 -11 35.5 -16.5q11.5 -5.5 25.5 -5.5q31 0 38 45l68 -12q-4 -54 -31 -84.5q-27 -30.5 -68 -30.5q-11 0 -20 1q-9 1 -18 3.5q-9 2.5 -19.5 6.5q-10.5 4 -24.5 11q-21 10 -33.5 17q-12.5 7 -26.5 7q-13 0 -23.5 -11q-10.5 -11 -15.5 -35z" />
<glyph unicode="&#242;" horiz-adv-x="570" d="M285 -13q-122 0 -184 66.5q-62 66.5 -62 213.5q0 143 64 211q64 68 182 68q125 0 185.5 -64.5q60.5 -64.5 60.5 -214.5q0 -147 -62.5 -213.5q-62.5 -66.5 -183.5 -66.5zt0 0zM285 97q30 0 52.5 8.5q22.5 8.5 37.5 28q15 19.5 22.5 52.5q7.5 33 7.5 81q0 48 -7.5 80.5q-7.5 32.5 -22.5 52q-15 19.5 -37.5 28q-22.5 8.5 -52.5 8.5q-59 0 -89.5 -37.5q-30.5 -37.5 -30.5 -131.5q0 -48 7.5 -81q7.5 -33 22.5 -52.5q15 -19.5 37.5 -28q22.5 -8.5 52.5 -8.5zt0 0zM102 769h158l84 -151l-100 0z" />
<glyph unicode="&#243;" horiz-adv-x="570" d="M285 -13q-122 0 -184 66.5q-62 66.5 -62 213.5q0 143 64 211q64 68 182 68q125 0 185.5 -64.5q60.5 -64.5 60.5 -214.5q0 -147 -62.5 -213.5q-62.5 -66.5 -183.5 -66.5zt0 0zM285 97q30 0 52.5 8.5q22.5 8.5 37.5 28q15 19.5 22.5 52.5q7.5 33 7.5 81q0 48 -7.5 80.5q-7.5 32.5 -22.5 52q-15 19.5 -37.5 28q-22.5 8.5 -52.5 8.5q-59 0 -89.5 -37.5q-30.5 -37.5 -30.5 -131.5q0 -48 7.5 -81q7.5 -33 22.5 -52.5q15 -19.5 37.5 -28q22.5 -8.5 52.5 -8.5zt0 0zM313 769h156l-144 -151l-98 0z" />
<glyph unicode="&#244;" horiz-adv-x="570" d="M285 -13q-122 0 -184 66.5q-62 66.5 -62 213.5q0 143 64 211q64 68 182 68q125 0 185.5 -64.5q60.5 -64.5 60.5 -214.5q0 -147 -62.5 -213.5q-62.5 -66.5 -183.5 -66.5zt0 0zM285 97q30 0 52.5 8.5q22.5 8.5 37.5 28q15 19.5 22.5 52.5q7.5 33 7.5 81q0 48 -7.5 80.5q-7.5 32.5 -22.5 52q-15 19.5 -37.5 28q-22.5 8.5 -52.5 8.5q-59 0 -89.5 -37.5q-30.5 -37.5 -30.5 -131.5q0 -48 7.5 -81q7.5 -33 22.5 -52.5q15 -19.5 37.5 -28q22.5 -8.5 52.5 -8.5zt0 0zM221 769h128l112 -151h-101l-74 88l-78 -88l-99 0z" />
<glyph unicode="&#245;" horiz-adv-x="570" d="M285 -13q-122 0 -184 66.5q-62 66.5 -62 213.5q0 143 64 211q64 68 182 68q125 0 185.5 -64.5q60.5 -64.5 60.5 -214.5q0 -147 -62.5 -213.5q-62.5 -66.5 -183.5 -66.5zt0 0zM285 97q30 0 52.5 8.5q22.5 8.5 37.5 28q15 19.5 22.5 52.5q7.5 33 7.5 81q0 48 -7.5 80.5q-7.5 32.5 -22.5 52q-15 19.5 -37.5 28q-22.5 8.5 -52.5 8.5q-59 0 -89.5 -37.5q-30.5 -37.5 -30.5 -131.5q0 -48 7.5 -81q7.5 -33 22.5 -52.5q15 -19.5 37.5 -28q22.5 -8.5 52.5 -8.5zt0 0zM111 632q2 56 30 86q28 30 70 30q20 0 39 -6.5q19 -6.5 42 -17.5q24 -11 35.5 -16.5q11.5 -5.5 25.5 -5.5q31 0 38 45l68 -12q-4 -54 -31 -84.5q-27 -30.5 -68 -30.5q-11 0 -20 1q-9 1 -18 3.5q-9 2.5 -19.5 6.5q-10.5 4 -24.5 11q-21 10 -33.5 17q-12.5 7 -26.5 7q-13 0 -23.5 -11q-10.5 -11 -15.5 -35z" />
<glyph unicode="&#246;" horiz-adv-x="570" d="M285 -13q-122 0 -184 66.5q-62 66.5 -62 213.5q0 143 64 211q64 68 182 68q125 0 185.5 -64.5q60.5 -64.5 60.5 -214.5q0 -147 -62.5 -213.5q-62.5 -66.5 -183.5 -66.5zt0 0zM285 97q30 0 52.5 8.5q22.5 8.5 37.5 28q15 19.5 22.5 52.5q7.5 33 7.5 81q0 48 -7.5 80.5q-7.5 32.5 -22.5 52q-15 19.5 -37.5 28q-22.5 8.5 -52.5 8.5q-59 0 -89.5 -37.5q-30.5 -37.5 -30.5 -131.5q0 -48 7.5 -81q7.5 -33 22.5 -52.5q15 -19.5 37.5 -28q22.5 -8.5 52.5 -8.5zt0 0zM181 628q-71 0 -71 66q0 65 71 65q71 0 71 -65q0 -66 -71 -66zt0 0zM389 628q-71 0 -71 66q0 65 71 65q71 0 71 -65q0 -66 -71 -66z" />
<glyph unicode="&#247;" horiz-adv-x="600" d="M90 410h420v-107h-420zM300 85q-81 0 -81 81q0 81 81 81q81 0 81 -81q0 -81 -81 -81zt0 0zM300 466q-40 0 -60.5 21q-20.5 21 -20.5 60q0 81 81 81q81 0 81 -81q0 -39 -20.5 -60t-60.5 -21z" />
<glyph unicode="&#248;" horiz-adv-x="570" d="M285 -13q-77 0 -128 25l-35 -53l-59 41l37 55q-61 67 -61 212q0 143 64 211q64 68 182 68q75 0 128 -24l35 52l59 -40l-36 -54q30 -34 45 -86q15 -52 15 -127q0 -147 -62.5 -213.5q-62.5 -66.5 -183.5 -66.5zt0 0zM285 97q30 0 52.5 8.5q22.5 8.5 37.5 28q15 19.5 22.5 52.5q7.5 33 7.5 81q0 59 -12 97l-170 -254q25 -13 62 -13zt0 0zM165 267q0 -61 12 -98l170 254q-25 13 -62 13q-59 0 -89.5 -37.5t-30.5 -131.5z" />
<glyph unicode="&#249;" horiz-adv-x="580" d="M237 -13q-83 0 -128 46q-45 46 -45 150v351h122v-310q0 -73 23 -100q23 -27 74 -27q51 0 78.5 30.5q27.5 30.5 27.5 96.5v310h122v-534h-117l-5 81q-44 -94 -152 -94zt0 0zM104 769h158l84 -151l-100 0z" />
<glyph unicode="&#250;" horiz-adv-x="580" d="M237 -13q-83 0 -128 46q-45 46 -45 150v351h122v-310q0 -73 23 -100q23 -27 74 -27q51 0 78.5 30.5q27.5 30.5 27.5 96.5v310h122v-534h-117l-5 81q-44 -94 -152 -94zt0 0zM315 769h156l-144 -151l-98 0z" />
<glyph unicode="&#251;" horiz-adv-x="580" d="M237 -13q-83 0 -128 46q-45 46 -45 150v351h122v-310q0 -73 23 -100q23 -27 74 -27q51 0 78.5 30.5q27.5 30.5 27.5 96.5v310h122v-534h-117l-5 81q-44 -94 -152 -94zt0 0zM223 769h128l112 -151h-101l-74 88l-78 -88l-99 0z" />
<glyph unicode="&#252;" horiz-adv-x="580" d="M237 -13q-83 0 -128 46q-45 46 -45 150v351h122v-310q0 -73 23 -100q23 -27 74 -27q51 0 78.5 30.5q27.5 30.5 27.5 96.5v310h122v-534h-117l-5 81q-44 -94 -152 -94zt0 0zM183 628q-71 0 -71 66q0 65 71 65q71 0 71 -65q0 -66 -71 -66zt0 0zM391 628q-71 0 -71 66q0 65 71 65q71 0 71 -65q0 -66 -71 -66z" />
<glyph unicode="&#253;" horiz-adv-x="520" d="M174 -193q-26 0 -47 5.5q-21 5.5 -24 7.5l0 112q11 -7 22.5 -11q11.5 -4 27.5 -4q10 0 19.5 3q9.5 3 17.5 12q8 9 15.5 25.5q7.5 16.5 14.5 42.5l-205 534h132l129 -366l104 366h125l-162 -528q-20 -64 -38 -103q-18 -39 -37.5 -60.5q-19.5 -21.5 -42.5 -28.5q-23 -7 -51 -7zt0 0zM288 769h156l-144 -151l-98 0z" />
<glyph unicode="&#254;" horiz-adv-x="590" d="M69 757h122v-303q10 19 24.5 36q14.5 17 34.5 29.5q20 12.5 46.5 19.5q26.5 7 60.5 7q49 0 85.5 -15q36.5 -15 60.5 -47.5q24 -32.5 36 -84.5q12 -52 12 -127q0 -153 -51.5 -219q-51.5 -66 -155.5 -66q-33 0 -58 8q-25 8 -43.5 20.5q-18.5 12.5 -31 29q-12.5 16.5 -20.5 33.5l0 -258h-122zM425 272q0 47 -7 78.5q-7 31.5 -21.5 50.5q-14.5 19 -36 27q-21.5 8 -50.5 8q-57 0 -88 -33.5q-31 -33.5 -31 -107.5v-56q0 -73 31.5 -107.5q31.5 -34.5 86.5 -34.5q29 0 51 8q22 8 36.5 28.5q14.5 20.5 21.5 54t7 84.5z" />
<glyph unicode="&#255;" horiz-adv-x="520" d="M174 -193q-26 0 -47 5.5q-21 5.5 -24 7.5l0 112q11 -7 22.5 -11q11.5 -4 27.5 -4q10 0 19.5 3q9.5 3 17.5 12q8 9 15.5 25.5q7.5 16.5 14.5 42.5l-205 534h132l129 -366l104 366h125l-162 -528q-20 -64 -38 -103q-18 -39 -37.5 -60.5q-19.5 -21.5 -42.5 -28.5q-23 -7 -51 -7zt0 0zM156 628q-71 0 -71 66q0 65 71 65q71 0 71 -65q0 -66 -71 -66zt0 0zM364 628q-71 0 -71 66q0 65 71 65q71 0 71 -65q0 -66 -71 -66z" />
<glyph unicode="&#256;" horiz-adv-x="640" d="M249 700h143l233 -700h-133l-52 166h-246l-52 -166h-127zM227 273h180l-89 287zM163 874h314v-88l-314 0z" />
<glyph unicode="&#257;" horiz-adv-x="535" d="M198 -13q-78 0 -118.5 41q-40.5 41 -40.5 120q0 42 11 73q11 31 36 51.5q25 20.5 65 31q40 10.5 98 10.5h100v36q0 47 -23 66.5q-23 19.5 -85 19.5q-47 0 -89.5 -12q-42.5 -12 -68.5 -29l0 120q30 13 77 22q47 9 101 9q58 0 98.5 -10q40.5 -10 65 -33q24.5 -23 35.5 -60q11 -37 11 -91v-352h-110l-5 85q-15 -40 -54 -69q-39 -29 -104 -29zt0 0zM242 91q50 0 78.5 29.5q28.5 29.5 28.5 86.5v29h-86q-56 0 -77 -18.5q-21 -18.5 -21 -58.5q0 -34 18 -51q18 -17 59 -17zt0 0zM134 726h282v-84l-282 0z" />
<glyph unicode="&#258;" horiz-adv-x="640" d="M249 700h143l233 -700h-133l-52 166h-246l-52 -166h-127zM227 273h180l-89 287zM320 761q-68 0 -111 34q-43 34 -60 102l80 22q20 -73 91 -73q70 0 92 73l79 -22q-17 -69 -60 -102.5t-111 -33.5z" />
<glyph unicode="&#259;" horiz-adv-x="535" d="M198 -13q-78 0 -118.5 41q-40.5 41 -40.5 120q0 42 11 73q11 31 36 51.5q25 20.5 65 31q40 10.5 98 10.5h100v36q0 47 -23 66.5q-23 19.5 -85 19.5q-47 0 -89.5 -12q-42.5 -12 -68.5 -29l0 120q30 13 77 22q47 9 101 9q58 0 98.5 -10q40.5 -10 65 -33q24.5 -23 35.5 -60q11 -37 11 -91v-352h-110l-5 85q-15 -40 -54 -69q-39 -29 -104 -29zt0 0zM242 91q50 0 78.5 29.5q28.5 29.5 28.5 86.5v29h-86q-56 0 -77 -18.5q-21 -18.5 -21 -58.5q0 -34 18 -51q18 -17 59 -17zt0 0zM272 615q-66 0 -109 34q-43 34 -57 103l78 20q8 -38 31 -56q23 -18 57 -18q34 0 58 18q24 18 32 56l76 -21q-14 -69 -56.5 -102.5t-109.5 -33.5z" />
<glyph unicode="&#260;" horiz-adv-x="640" d="M539 -203q-60 0 -86 22.5q-26 22.5 -26 62.5q0 35 21.5 64q21.5 29 63.5 54l-20 0l-52 166h-246l-52 -166h-127l234 700h143l233 -700q-51 -23 -74 -49.5q-23 -26.5 -23 -48.5q0 -33 39 -33q29 0 58 16l0 -69q-16 -8 -36.5 -13.5q-20.5 -5.5 -49.5 -5.5zt0 0zM227 273h180l-89 287z" />
<glyph unicode="&#261;" horiz-adv-x="535" d="M385 -203q-60 0 -86 22.5q-26 22.5 -26 62.5q0 68 88 120l-5 83q-15 -40 -54 -69q-39 -29 -104 -29q-78 0 -118.5 41q-40.5 41 -40.5 120q0 42 11 73q11 31 36 51.5q25 20.5 65 31q40 10.5 98 10.5h100v36q0 47 -23 66.5q-23 19.5 -85 19.5q-47 0 -89.5 -12q-42.5 -12 -68.5 -29l0 120q30 13 77 22q47 9 101 9q58 0 98.5 -10q40.5 -10 65 -33q24.5 -23 35.5 -60q11 -37 11 -91v-352q-52 -23 -75 -49.5q-23 -26.5 -23 -48.5q0 -34 40 -34q29 0 58 16l0 -68q-16 -8 -37 -13.5q-21 -5.5 -49 -5.5zt0 0zM242 91q50 0 78.5 29.5q28.5 29.5 28.5 86.5v29h-86q-56 0 -77 -18.5q-21 -18.5 -21 -58.5q0 -34 18 -51t59 -17z" />
<glyph unicode="&#262;" horiz-adv-x="575" d="M362 -13q-81 0 -140.5 20q-59.5 20 -99 64q-39.5 44 -58.5 114q-19 70 -19 170q0 189 79 273.5q79 84.5 236 84.5q36 0 67.5 -5q31.5 -5 54.5 -11q27 -7 50 -16l0 -129q-29 17 -69.5 29.5q-40.5 12.5 -98.5 12.5q-47 0 -82 -12.5q-35 -12.5 -58.5 -41q-23.5 -28.5 -35 -74q-11.5 -45.5 -11.5 -111.5q0 -69 12 -117q12 -48 35.5 -77q23.5 -29 58.5 -42q35 -13 82 -13q59 0 102.5 16q43.5 16 67.5 33l0 -129q-22 -11 -48 -20q-23 -8 -55 -13.5q-32 -5.5 -70 -5.5zt0 0zM372 915h158l-152 -150l-100 0z" />
<glyph unicode="&#263;" horiz-adv-x="475" d="M295 -13q-66 0 -114.5 15.5q-48.5 15.5 -80 50q-31.5 34.5 -46.5 88.5q-15 54 -15 131q0 142 64 208q64 66 189 66q31 0 57 -3.5q26 -3.5 45 -8.5q19 -5 30.5 -9.5q11.5 -4.5 14.5 -5.5l0 -127q-24 18 -56.5 31q-32.5 13 -77.5 13q-72 0 -106 -37.5q-34 -37.5 -34 -126.5q0 -95 36.5 -135q36.5 -40 113.5 -40q38 0 74 13q36 13 56 32l0 -121q-3 -2 -15 -7.5q-12 -5.5 -31.5 -11.5q-19.5 -6 -46 -10.5q-26.5 -4.5 -57.5 -4.5zt0 0zM300 769h156l-144 -151l-98 0z" />
<glyph unicode="&#264;" horiz-adv-x="575" d="M362 -13q-81 0 -140.5 20q-59.5 20 -99 64q-39.5 44 -58.5 114q-19 70 -19 170q0 189 79 273.5q79 84.5 236 84.5q36 0 67.5 -5q31.5 -5 54.5 -11q27 -7 50 -16l0 -129q-29 17 -69.5 29.5q-40.5 12.5 -98.5 12.5q-47 0 -82 -12.5q-35 -12.5 -58.5 -41q-23.5 -28.5 -35 -74q-11.5 -45.5 -11.5 -111.5q0 -69 12 -117q12 -48 35.5 -77q23.5 -29 58.5 -42q35 -13 82 -13q59 0 102.5 16q43.5 16 67.5 33l0 -129q-22 -11 -48 -20q-23 -8 -55 -13.5q-32 -5.5 -70 -5.5zt0 0zM272 915h130l119 -150h-103l-81 85l-83 -85l-101 0z" />
<glyph unicode="&#265;" horiz-adv-x="475" d="M295 -13q-66 0 -114.5 15.5q-48.5 15.5 -80 50q-31.5 34.5 -46.5 88.5q-15 54 -15 131q0 142 64 208q64 66 189 66q31 0 57 -3.5q26 -3.5 45 -8.5q19 -5 30.5 -9.5q11.5 -4.5 14.5 -5.5l0 -127q-24 18 -56.5 31q-32.5 13 -77.5 13q-72 0 -106 -37.5q-34 -37.5 -34 -126.5q0 -95 36.5 -135q36.5 -40 113.5 -40q38 0 74 13q36 13 56 32l0 -121q-3 -2 -15 -7.5q-12 -5.5 -31.5 -11.5q-19.5 -6 -46 -10.5q-26.5 -4.5 -57.5 -4.5zt0 0zM208 769h128l112 -151h-101l-74 88l-78 -88l-99 0z" />
<glyph unicode="&#266;" horiz-adv-x="575" d="M362 -13q-81 0 -140.5 20q-59.5 20 -99 64q-39.5 44 -58.5 114q-19 70 -19 170q0 189 79 273.5q79 84.5 236 84.5q36 0 67.5 -5q31.5 -5 54.5 -11q27 -7 50 -16l0 -129q-29 17 -69.5 29.5q-40.5 12.5 -98.5 12.5q-47 0 -82 -12.5q-35 -12.5 -58.5 -41q-23.5 -28.5 -35 -74q-11.5 -45.5 -11.5 -111.5q0 -69 12 -117q12 -48 35.5 -77q23.5 -29 58.5 -42q35 -13 82 -13q59 0 102.5 16q43.5 16 67.5 33l0 -129q-22 -11 -48 -20q-23 -8 -55 -13.5q-32 -5.5 -70 -5.5zt0 0zM337 770q-76 0 -76 70q0 70 76 70q76 0 76 -70q0 -70 -76 -70z" />
<glyph unicode="&#267;" horiz-adv-x="475" d="M295 -13q-66 0 -114.5 15.5q-48.5 15.5 -80 50q-31.5 34.5 -46.5 88.5q-15 54 -15 131q0 142 64 208q64 66 189 66q31 0 57 -3.5q26 -3.5 45 -8.5q19 -5 30.5 -9.5q11.5 -4.5 14.5 -5.5l0 -127q-24 18 -56.5 31q-32.5 13 -77.5 13q-72 0 -106 -37.5q-34 -37.5 -34 -126.5q0 -95 36.5 -135q36.5 -40 113.5 -40q38 0 74 13q36 13 56 32l0 -121q-3 -2 -15 -7.5q-12 -5.5 -31.5 -11.5q-19.5 -6 -46 -10.5q-26.5 -4.5 -57.5 -4.5zt0 0zM272 626q-74 0 -74 68q0 68 74 68q74 0 74 -68q0 -68 -74 -68z" />
<glyph unicode="&#268;" horiz-adv-x="575" d="M362 -13q-81 0 -140.5 20q-59.5 20 -99 64q-39.5 44 -58.5 114q-19 70 -19 170q0 189 79 273.5q79 84.5 236 84.5q36 0 67.5 -5q31.5 -5 54.5 -11q27 -7 50 -16l0 -129q-29 17 -69.5 29.5q-40.5 12.5 -98.5 12.5q-47 0 -82 -12.5q-35 -12.5 -58.5 -41q-23.5 -28.5 -35 -74q-11.5 -45.5 -11.5 -111.5q0 -69 12 -117q12 -48 35.5 -77q23.5 -29 58.5 -42q35 -13 82 -13q59 0 102.5 16q43.5 16 67.5 33l0 -129q-22 -11 -48 -20q-23 -8 -55 -13.5q-32 -5.5 -70 -5.5zt0 0zM153 915h103l81 -85l83 85h101l-119 -150l-130 0z" />
<glyph unicode="&#269;" horiz-adv-x="475" d="M295 -13q-66 0 -114.5 15.5q-48.5 15.5 -80 50q-31.5 34.5 -46.5 88.5q-15 54 -15 131q0 142 64 208q64 66 189 66q31 0 57 -3.5q26 -3.5 45 -8.5q19 -5 30.5 -9.5q11.5 -4.5 14.5 -5.5l0 -127q-24 18 -56.5 31q-32.5 13 -77.5 13q-72 0 -106 -37.5q-34 -37.5 -34 -126.5q0 -95 36.5 -135q36.5 -40 113.5 -40q38 0 74 13q36 13 56 32l0 -121q-3 -2 -15 -7.5q-12 -5.5 -31.5 -11.5q-19.5 -6 -46 -10.5q-26.5 -4.5 -57.5 -4.5zt0 0zM96 769h101l75 -87l77 87h99l-112 -151l-128 0z" />
<glyph unicode="&#270;" horiz-adv-x="680" d="M290 -6q-34 0 -69.5 1.5q-35.5 1.5 -64.5 3.5q-34 3 -67 6l0 690q33 2 68 5q30 2 66.5 4q36.5 2 73.5 2q89 0 153 -19.5q64 -19.5 105 -61.5q41 -42 60.5 -108.5q19.5 -66.5 19.5 -159.5q0 -187 -85.5 -275q-85.5 -88 -259.5 -88zt0 0zM503 357q0 64 -11.5 108q-11.5 44 -36 71q-24.5 27 -63 39q-38.5 12 -92.5 12q-16 0 -31 -0.5q-15 -0.5 -26 -1.5q-14 -1 -26 -2l0 -466q11 -1 23 -2q11 -1 24.5 -1.5q13.5 -0.5 28.5 -0.5q54 0 93.5 13q39.5 13 65.5 42.5q26 29.5 38.5 76q12.5 46.5 12.5 112.5zt0 0zM132 915h103l81 -85l83 85h101l-119 -150l-130 0z" />
<glyph unicode="&#271;" horiz-adv-x="660" d="M619 757h115l-63 -191h-82zM399 81q-8 -17 -21.5 -33.5q-13.5 -16.5 -33 -30q-19.5 -13.5 -46 -22q-26.5 -8.5 -59.5 -8.5q-51 0 -88.5 15.5q-37.5 15.5 -62.5 49.5q-25 34 -37 88q-12 54 -12 132q0 144 50.5 209q50.5 65 153.5 65q59 0 98 -24q39 -24 58 -66l0 301h122v-757h-117zM165 272q0 -51 7.5 -84.5q7.5 -33.5 22 -53.5q14.5 -20 36 -28.5q21.5 -8.5 50.5 -8.5q55 0 86.5 34.5q31.5 34.5 31.5 108.5v56q0 140 -119 140q-58 0 -86.5 -35.5t-28.5 -128.5z" />
<glyph unicode="&#272;" horiz-adv-x="690" d="M13 401h86v294q33 2 68 5q30 2 66.5 4q36.5 2 73.5 2q89 0 153 -19.5q64 -19.5 105 -61.5q41 -42 60.5 -108.5q19.5 -66.5 19.5 -159.5q0 -187 -85.5 -275q-85.5 -88 -259.5 -88q-34 0 -69.5 1.5q-35.5 1.5 -64.5 3.5q-34 3 -67 6l0 304h-86zM513 357q0 64 -11.5 108q-11.5 44 -36 71q-24.5 27 -63 39q-38.5 12 -92.5 12q-16 0 -31 -0.5q-15 -0.5 -26 -1.5q-14 -1 -26 -2l0 -182h141v-92h-141v-192q11 -1 23 -2q11 -1 24.5 -1.5q13.5 -0.5 28.5 -0.5q54 0 93.5 13q39.5 13 65.5 42.5q26 29.5 38.5 76t12.5 112.5z" />
<glyph unicode="&#273;" horiz-adv-x="590" d="M213 680h186v77h122v-77h86v-86h-86v-594h-117l-5 81q-8 -17 -21.5 -33.5q-13.5 -16.5 -33 -30q-19.5 -13.5 -46 -22q-26.5 -8.5 -59.5 -8.5q-51 0 -88.5 15.5q-37.5 15.5 -62.5 49.5q-25 34 -37 88q-12 54 -12 132q0 144 50.5 209q50.5 65 153.5 65q59 0 98 -24q39 -24 58 -66l0 138h-186zM165 272q0 -51 7.5 -84.5q7.5 -33.5 22 -53.5q14.5 -20 36 -28.5q21.5 -8.5 50.5 -8.5q55 0 86.5 34.5q31.5 34.5 31.5 108.5v56q0 140 -119 140q-58 0 -86.5 -35.5t-28.5 -128.5z" />
<glyph unicode="&#274;" horiz-adv-x="575" d="M89 700h436v-114h-308v-176h268v-107h-268v-189h308v-114h-436zM150 874h314v-88l-314 0z" />
<glyph unicode="&#275;" horiz-adv-x="550" d="M293 -13q-136 0 -195 70q-59 70 -59 217q0 138 63.5 205q63.5 67 177.5 67q124 0 177.5 -64.5q53.5 -64.5 53.5 -188.5v-58h-350q3 -76 37.5 -110q34.5 -34 108.5 -34q51 0 98.5 16.5q47.5 16.5 73.5 40.5l0 -113q-29 -19 -73 -33.5q-44 -14.5 -113 -14.5zt0 0zM280 450q-57 0 -86 -32.5q-29 -32.5 -33 -104.5l228 0q0 67 -23 102q-23 35 -86 35zt0 0zM139 726h282v-84l-282 0z" />
<glyph unicode="&#278;" horiz-adv-x="575" d="M89 700h436v-114h-308v-176h268v-107h-268v-189h308v-114h-436zM307 770q-76 0 -76 70q0 70 76 70q76 0 76 -70q0 -70 -76 -70z" />
<glyph unicode="&#279;" horiz-adv-x="550" d="M293 -13q-136 0 -195 70q-59 70 -59 217q0 138 63.5 205q63.5 67 177.5 67q124 0 177.5 -64.5q53.5 -64.5 53.5 -188.5v-58h-350q3 -76 37.5 -110q34.5 -34 108.5 -34q51 0 98.5 16.5q47.5 16.5 73.5 40.5l0 -113q-29 -19 -73 -33.5q-44 -14.5 -113 -14.5zt0 0zM280 450q-57 0 -86 -32.5q-29 -32.5 -33 -104.5l228 0q0 67 -23 102q-23 35 -86 35zt0 0zM277 626q-74 0 -74 68q0 68 74 68q74 0 74 -68q0 -68 -74 -68z" />
<glyph unicode="&#280;" horiz-adv-x="575" d="M89 700h436v-114h-308v-176h268v-107h-268v-189h308v-114q-51 -23 -74 -49.5q-23 -26.5 -23 -48.5q0 -33 39 -33q29 0 58 16l0 -69q-16 -8 -36.5 -13.5q-20.5 -5.5 -49.5 -5.5q-60 0 -86 22.5q-26 22.5 -26 62.5q0 35 21.5 64q21.5 29 63.5 54l-323 0z" />
<glyph unicode="&#281;" horiz-adv-x="550" d="M293 -13q-136 0 -195 70q-59 70 -59 217q0 138 63.5 205q63.5 67 177.5 67q124 0 177.5 -64.5q53.5 -64.5 53.5 -188.5v-58h-350q3 -76 37.5 -110q34.5 -34 108.5 -34q51 0 98.5 16.5q47.5 16.5 73.5 40.5l0 -113q-2 -2 -4 -3q-2 -1 -4 -2q-36 -24 -59.5 -42.5q-23.5 -18.5 -36.5 -33.5q-13 -15 -18 -27.5q-5 -12.5 -5 -24.5q0 -34 40 -34q29 0 59 16l0 -68q-16 -8 -37 -13.5q-21 -5.5 -50 -5.5q-60 0 -85.5 22.5q-25.5 22.5 -25.5 62.5q0 32 17 57.5q17 25.5 49 48.5q-6 -1 -12.5 -1q-6.5 0 -13.5 0zt0 0zM280 450q-57 0 -86 -32.5q-29 -32.5 -33 -104.5l228 0q0 67 -23 102t-86 35z" />
<glyph unicode="&#282;" horiz-adv-x="575" d="M89 700h436v-114h-308v-176h268v-107h-268v-189h308v-114h-436zM123 915h103l81 -85l83 85h101l-119 -150l-130 0z" />
<glyph unicode="&#283;" horiz-adv-x="550" d="M293 -13q-136 0 -195 70q-59 70 -59 217q0 138 63.5 205q63.5 67 177.5 67q124 0 177.5 -64.5q53.5 -64.5 53.5 -188.5v-58h-350q3 -76 37.5 -110q34.5 -34 108.5 -34q51 0 98.5 16.5q47.5 16.5 73.5 40.5l0 -113q-29 -19 -73 -33.5q-44 -14.5 -113 -14.5zt0 0zM280 450q-57 0 -86 -32.5q-29 -32.5 -33 -104.5l228 0q0 67 -23 102q-23 35 -86 35zt0 0zM101 769h101l75 -87l77 87h99l-112 -151l-128 0z" />
<glyph unicode="&#284;" horiz-adv-x="650" d="M373 -13q-85 0 -146.5 20q-61.5 20 -102 64.5q-40.5 44.5 -60 114q-19.5 69.5 -19.5 168.5q0 188 81.5 273.5q81.5 85.5 246.5 85.5q39 0 70.5 -5q31.5 -5 54.5 -11q26 -7 47 -16l0 -129q-29 16 -73.5 29q-44.5 13 -98.5 13q-50 0 -86.5 -13q-36.5 -13 -61 -41.5q-24.5 -28.5 -36.5 -74q-12 -45.5 -12 -110.5q0 -70 12 -117.5q12 -47.5 36 -77q24 -29.5 61 -42q37 -12.5 87 -12.5q29 0 51 4q22 4 41 9l0 153h-112v107h232v-342q-29 -16 -83 -33q-54 -17 -129 -17zt0 0zM288 915h130l119 -150h-103l-81 85l-83 -85l-101 0z" />
<glyph unicode="&#285;" horiz-adv-x="590" d="M263 -193q-59 0 -106.5 10.5q-47.5 10.5 -73.5 23.5l0 130q10 -9 27 -18.5q17 -9.5 40 -17.5q23 -8 52 -13q29 -5 63 -5q71 0 102.5 31q31.5 31 31.5 98v59q-8 -17 -21.5 -33.5q-13.5 -16.5 -33 -30q-19.5 -13.5 -46 -22q-26.5 -8.5 -59.5 -8.5q-101 0 -150.5 62.5q-49.5 62.5 -49.5 201.5q0 143 50.5 207q50.5 64 153.5 64q59 0 98 -24q39 -24 58 -66l5 78h117v-480q0 -132 -63.5 -189.5q-63.5 -57.5 -194.5 -57.5zt0 0zM280 121q56 0 87.5 34.5q31.5 34.5 31.5 105.5v40q0 66 -30 100.5q-30 34.5 -89 34.5q-58 0 -86.5 -34q-28.5 -34 -28.5 -118q0 -92 29 -127.5q29 -35.5 86 -35.5zt0 0zM216 769h128l112 -151h-101l-74 88l-78 -88l-99 0z" />
<glyph unicode="&#286;" horiz-adv-x="650" d="M373 -13q-85 0 -146.5 20q-61.5 20 -102 64.5q-40.5 44.5 -60 114q-19.5 69.5 -19.5 168.5q0 188 81.5 273.5q81.5 85.5 246.5 85.5q39 0 70.5 -5q31.5 -5 54.5 -11q26 -7 47 -16l0 -129q-29 16 -73.5 29q-44.5 13 -98.5 13q-50 0 -86.5 -13q-36.5 -13 -61 -41.5q-24.5 -28.5 -36.5 -74q-12 -45.5 -12 -110.5q0 -70 12 -117.5q12 -47.5 36 -77q24 -29.5 61 -42q37 -12.5 87 -12.5q29 0 51 4q22 4 41 9l0 153h-112v107h232v-342q-29 -16 -83 -33q-54 -17 -129 -17zt0 0zM353 761q-68 0 -111 34q-43 34 -60 102l80 22q20 -73 91 -73q70 0 92 73l79 -22q-17 -69 -60 -102.5t-111 -33.5z" />
<glyph unicode="&#287;" horiz-adv-x="590" d="M263 -193q-59 0 -106.5 10.5q-47.5 10.5 -73.5 23.5l0 130q10 -9 27 -18.5q17 -9.5 40 -17.5q23 -8 52 -13q29 -5 63 -5q71 0 102.5 31q31.5 31 31.5 98v59q-8 -17 -21.5 -33.5q-13.5 -16.5 -33 -30q-19.5 -13.5 -46 -22q-26.5 -8.5 -59.5 -8.5q-101 0 -150.5 62.5q-49.5 62.5 -49.5 201.5q0 143 50.5 207q50.5 64 153.5 64q59 0 98 -24q39 -24 58 -66l5 78h117v-480q0 -132 -63.5 -189.5q-63.5 -57.5 -194.5 -57.5zt0 0zM280 121q56 0 87.5 34.5q31.5 34.5 31.5 105.5v40q0 66 -30 100.5q-30 34.5 -89 34.5q-58 0 -86.5 -34q-28.5 -34 -28.5 -118q0 -92 29 -127.5q29 -35.5 86 -35.5zt0 0zM280 615q-66 0 -109 34q-43 34 -57 103l78 20q8 -38 31 -56q23 -18 57 -18q34 0 58 18q24 18 32 56l76 -21q-14 -69 -56.5 -102.5t-109.5 -33.5z" />
<glyph unicode="&#288;" horiz-adv-x="650" d="M373 -13q-85 0 -146.5 20q-61.5 20 -102 64.5q-40.5 44.5 -60 114q-19.5 69.5 -19.5 168.5q0 188 81.5 273.5q81.5 85.5 246.5 85.5q39 0 70.5 -5q31.5 -5 54.5 -11q26 -7 47 -16l0 -129q-29 16 -73.5 29q-44.5 13 -98.5 13q-50 0 -86.5 -13q-36.5 -13 -61 -41.5q-24.5 -28.5 -36.5 -74q-12 -45.5 -12 -110.5q0 -70 12 -117.5q12 -47.5 36 -77q24 -29.5 61 -42q37 -12.5 87 -12.5q29 0 51 4q22 4 41 9l0 153h-112v107h232v-342q-29 -16 -83 -33q-54 -17 -129 -17zt0 0zM353 770q-76 0 -76 70q0 70 76 70q76 0 76 -70q0 -70 -76 -70z" />
<glyph unicode="&#289;" horiz-adv-x="590" d="M263 -193q-59 0 -106.5 10.5q-47.5 10.5 -73.5 23.5l0 130q10 -9 27 -18.5q17 -9.5 40 -17.5q23 -8 52 -13q29 -5 63 -5q71 0 102.5 31q31.5 31 31.5 98v59q-8 -17 -21.5 -33.5q-13.5 -16.5 -33 -30q-19.5 -13.5 -46 -22q-26.5 -8.5 -59.5 -8.5q-101 0 -150.5 62.5q-49.5 62.5 -49.5 201.5q0 143 50.5 207q50.5 64 153.5 64q59 0 98 -24q39 -24 58 -66l5 78h117v-480q0 -132 -63.5 -189.5q-63.5 -57.5 -194.5 -57.5zt0 0zM280 121q56 0 87.5 34.5q31.5 34.5 31.5 105.5v40q0 66 -30 100.5q-30 34.5 -89 34.5q-58 0 -86.5 -34q-28.5 -34 -28.5 -118q0 -92 29 -127.5q29 -35.5 86 -35.5zt0 0zM280 626q-74 0 -74 68q0 68 74 68q74 0 74 -68q0 -68 -74 -68z" />
<glyph unicode="&#290;" horiz-adv-x="650" d="M373 -13q-85 0 -146.5 20q-61.5 20 -102 64.5q-40.5 44.5 -60 114q-19.5 69.5 -19.5 168.5q0 188 81.5 273.5q81.5 85.5 246.5 85.5q39 0 70.5 -5q31.5 -5 54.5 -11q26 -7 47 -16l0 -129q-29 16 -73.5 29q-44.5 13 -98.5 13q-50 0 -86.5 -13q-36.5 -13 -61 -41.5q-24.5 -28.5 -36.5 -74q-12 -45.5 -12 -110.5q0 -70 12 -117.5q12 -47.5 36 -77q24 -29.5 61 -42q37 -12.5 87 -12.5q29 0 51 4q22 4 41 9l0 153h-112v107h232v-342q-29 -16 -83 -33q-54 -17 -129 -17zt0 0zM284 -178q29 1 50.5 7q21.5 6 26.5 29q-29 0 -47 3q-18 3 -27.5 9q-9.5 6 -13 14.5q-3.5 8.5 -3.5 19.5q0 20 18.5 34.5q18.5 14.5 64.5 14.5q43 0 63 -18.5q20 -18.5 20 -50.5q0 -22 -9.5 -42.5q-9.5 -20.5 -28.5 -37q-19 -16.5 -47 -26.5q-28 -10 -64 -11z" />
<glyph unicode="&#291;" horiz-adv-x="590" d="M263 -193q-59 0 -106.5 10.5q-47.5 10.5 -73.5 23.5l0 130q10 -9 27 -18.5q17 -9.5 40 -17.5q23 -8 52 -13q29 -5 63 -5q71 0 102.5 31q31.5 31 31.5 98v59q-8 -17 -21.5 -33.5q-13.5 -16.5 -33 -30q-19.5 -13.5 -46 -22q-26.5 -8.5 -59.5 -8.5q-101 0 -150.5 62.5q-49.5 62.5 -49.5 201.5q0 143 50.5 207q50.5 64 153.5 64q59 0 98 -24q39 -24 58 -66l5 78h117v-480q0 -132 -63.5 -189.5q-63.5 -57.5 -194.5 -57.5zt0 0zM280 121q56 0 87.5 34.5q31.5 34.5 31.5 105.5v40q0 66 -30 100.5q-30 34.5 -89 34.5q-58 0 -86.5 -34q-28.5 -34 -28.5 -118q0 -92 29 -127.5q29 -35.5 86 -35.5zt0 0zM345 749q-32 -2 -51 -9.5q-19 -7.5 -23 -28.5q53 0 70.5 -11.5q17.5 -11.5 17.5 -33.5q0 -20 -18 -34.5q-18 -14.5 -61 -14.5q-40 0 -59.5 19q-19.5 19 -19.5 51q0 21 8.5 41.5q8.5 20.5 25.5 36.5q17 16 43.5 26.5q26.5 10.5 63.5 11.5z" />
<glyph unicode="&#292;" horiz-adv-x="720" d="M89 700h128v-285h286v285h128v-700h-128v301h-286v-301h-128zM295 915h130l119 -150h-103l-81 85l-83 -85l-101 0z" />
<glyph unicode="&#293;" horiz-adv-x="585" d="M69 757h122v-305q43 94 156 94q85 0 129.5 -45.5q44.5 -45.5 44.5 -149.5v-351h-122v307q0 75 -24 102q-24 27 -77 27q-51 0 -79 -30.5q-28 -30.5 -28 -98.5v-307h-122zM66 970h128l112 -151h-101l-74 88l-78 -88l-99 0z" />
<glyph unicode="&#294;" horiz-adv-x="740" d="M13 596h86v104h128v-104h286v104h128v-104h86v-92h-86v-504h-128v301h-286v-301h-128v504h-86zM513 415v89h-286l0 -89z" />
<glyph unicode="&#295;" horiz-adv-x="605" d="M3 681h86v76h122v-76h200v-88h-200v-141q43 94 156 94q85 0 129.5 -45.5q44.5 -45.5 44.5 -149.5v-351h-122v307q0 75 -24 102q-24 27 -77 27q-51 0 -79 -30.5q-28 -30.5 -28 -98.5v-307h-122v593l-86 0z" />
<glyph unicode="&#298;" horiz-adv-x="330" d="M101 700h128v-700h-128zM8 874h314v-88l-314 0z" />
<glyph unicode="&#299;" horiz-adv-x="290" d="M84 534h122v-534h-122zM7 726h282v-84l-282 0z" />
<glyph unicode="&#302;" horiz-adv-x="330" d="M101 700h128v-696l6 -4q-52 -23 -75 -49.5q-23 -26.5 -23 -48.5q0 -34 40 -34q29 0 58 16l0 -68q-16 -8 -37 -13.5q-21 -5.5 -49 -5.5q-60 0 -86 22.5q-26 22.5 -26 62.5q0 35 21.5 63.5q21.5 28.5 63.5 54.5l-21 0z" />
<glyph unicode="&#303;" horiz-adv-x="290" d="M84 534h122v-528l10 -6q-52 -23 -75 -49.5q-23 -26.5 -23 -48.5q0 -34 40 -34q29 0 58 16l0 -68q-16 -8 -37 -13.5q-21 -5.5 -49 -5.5q-60 0 -86 22.5q-26 22.5 -26 62.5q0 35 21.5 63.5q21.5 28.5 63.5 54.5l-19 0zM145 626q-74 0 -74 68q0 68 74 68q74 0 74 -68q0 -68 -74 -68z" />
<glyph unicode="&#304;" horiz-adv-x="330" d="M101 700h128v-700h-128zM165 770q-76 0 -76 70q0 70 76 70q76 0 76 -70q0 -70 -76 -70z" />
<glyph unicode="&#305;" horiz-adv-x="290" d="M84 534h122v-534l-122 0z" />
<glyph unicode="&#308;" horiz-adv-x="420" d="M140 -13q-26 0 -46 2.5q-20 2.5 -34 5.5q-17 4 -30 9l0 129q10 -8 24 -14q11 -5 28 -9q17 -4 37 -4q45 0 65 22.5q20 22.5 20 82.5v489h127v-489q0 -63 -10.5 -106q-10.5 -43 -34 -69.5q-23.5 -26.5 -59.5 -37.5q-36 -11 -87 -11zt0 0zM202 915h130l119 -150h-103l-81 85l-83 -85l-101 0z" />
<glyph unicode="&#309;" horiz-adv-x="290" d="M62 -186q-30 0 -53.5 5q-23.5 5 -26.5 7l0 114q11 -7 24 -11.5q13 -4.5 28 -4.5q26 0 38 14q12 14 12 52v544h122v-550q0 -92 -36 -131q-36 -39 -108 -39zt0 0zM81 769h128l112 -151h-101l-74 88l-78 -88l-99 0z" />
<glyph unicode="&#310;" horiz-adv-x="655" d="M279 299h-62v-299h-128v700h128v-286h62l187 286h149l-230 -341l250 -359h-154zM293 -178q29 1 50.5 7q21.5 6 26.5 29q-29 0 -47 3q-18 3 -27.5 9q-9.5 6 -13 14.5q-3.5 8.5 -3.5 19.5q0 20 18.5 34.5q18.5 14.5 64.5 14.5q43 0 63 -18.5q20 -18.5 20 -50.5q0 -22 -9.5 -42.5q-9.5 -20.5 -28.5 -37q-19 -16.5 -47 -26.5q-28 -10 -64 -11z" />
<glyph unicode="&#311;" horiz-adv-x="555" d="M69 757h122v-427h49l136 204h137l-177 -254l195 -280h-142l-148 223h-50v-223h-122zM235 -179q32 2 51 9.5q19 7.5 23 28.5q-53 0 -70.5 11.5q-17.5 11.5 -17.5 33.5q0 20 18 34.5q18 14.5 61 14.5q40 0 59.5 -19q19.5 -19 19.5 -51q0 -21 -8.5 -41.5q-8.5 -20.5 -25.5 -36.5q-17 -16 -43.5 -26.5q-26.5 -10.5 -63.5 -11.5z" />
<glyph unicode="&#313;" horiz-adv-x="530" d="M89 700h128v-586h288v-114h-416zM195 915h158l-152 -150l-100 0z" />
<glyph unicode="&#314;" horiz-adv-x="315" d="M205 -6q-74 0 -107.5 34q-33.5 34 -33.5 112v617h122v-593q0 -34 11 -46q11 -12 37 -12q17 0 32.5 5.5q15.5 5.5 18.5 7.5l0 -110q-3 -2 -25 -8.5q-22 -6.5 -55 -6.5zt0 0zM157 896h136l-125 -109l-86 0z" />
<glyph unicode="&#315;" horiz-adv-x="530" d="M89 700h128v-586h288v-114h-416zM228 -178q29 1 50.5 7q21.5 6 26.5 29q-29 0 -47 3q-18 3 -27.5 9q-9.5 6 -13 14.5q-3.5 8.5 -3.5 19.5q0 20 18.5 34.5q18.5 14.5 64.5 14.5q43 0 63 -18.5q20 -18.5 20 -50.5q0 -22 -9.5 -42.5q-9.5 -20.5 -28.5 -37q-19 -16.5 -47 -26.5q-28 -10 -64 -11z" />
<glyph unicode="&#316;" horiz-adv-x="315" d="M205 -6q-74 0 -107.5 34q-33.5 34 -33.5 112v617h122v-593q0 -34 11 -46q11 -12 37 -12q17 0 32.5 5.5q15.5 5.5 18.5 7.5l0 -110q-3 -2 -25 -8.5q-22 -6.5 -55 -6.5zt0 0zM117 -179q32 2 51 9.5q19 7.5 23 28.5q-53 0 -70.5 11.5q-17.5 11.5 -17.5 33.5q0 20 18 34.5q18 14.5 61 14.5q40 0 59.5 -19q19.5 -19 19.5 -51q0 -21 -8.5 -41.5q-8.5 -20.5 -25.5 -36.5q-17 -16 -43.5 -26.5q-26.5 -10.5 -63.5 -11.5z" />
<glyph unicode="&#317;" horiz-adv-x="530" d="M357 700h120l-69 -194h-86zM89 700h128v-586h288v-114l-416 0z" />
<glyph unicode="&#318;" horiz-adv-x="375" d="M288 757h115l-67 -191h-81zM205 -6q-74 0 -107.5 34q-33.5 34 -33.5 112v617h122v-593q0 -34 11 -46q11 -12 37 -12q17 0 32.5 5.5q15.5 5.5 18.5 7.5l0 -110q-3 -2 -25 -8.5t-55 -6.5z" />
<glyph unicode="&#319;" horiz-adv-x="530" d="M89 700h128v-586h288v-114h-416zM417 300q-81 0 -81 80q0 81 81 81q81 0 81 -81q0 -80 -81 -80z" />
<glyph unicode="&#320;" horiz-adv-x="415" d="M205 -6q-74 0 -107.5 34q-33.5 34 -33.5 112v617h122v-593q0 -34 11 -46q11 -12 37 -12q17 0 32.5 5.5q15.5 5.5 18.5 7.5l0 -110q-3 -2 -25 -8.5q-22 -6.5 -55 -6.5zt0 0zM334 300q-81 0 -81 80q0 81 81 81q81 0 81 -81q0 -80 -81 -80z" />
<glyph unicode="&#321;" horiz-adv-x="540" d="M13 340l86 49v311h128v-237l144 83v-102l-144 -83v-247h288v-114h-416v287l-86 -49z" />
<glyph unicode="&#322;" horiz-adv-x="370" d="M13 359l100 57v341h122v-271l103 60v-97l-103 -60v-225q0 -34 11 -46q11 -12 37 -12q16 0 32 5.5q16 5.5 19 7.5l0 -110q-3 -2 -25.5 -8.5q-22.5 -6.5 -54.5 -6.5q-74 0 -107.5 34q-33.5 34 -33.5 112v179l-100 -58z" />
<glyph unicode="&#323;" horiz-adv-x="740" d="M89 700h150l230 -397q12 -22 22 -42q10 -20 18 -36q9 -18 16 -36l2 0q-1 18 -2 36q-1 16 -1.5 36q-0.5 20 -0.5 42v397h128v-700h-150l-230 397q-13 23 -23 43q-10 20 -18 36q-9 18 -15 35l-2 0q1 -17 2 -35q1 -16 1.5 -36q0.5 -20 0.5 -43v-397h-128zM405 915h158l-152 -150l-100 0z" />
<glyph unicode="&#324;" horiz-adv-x="585" d="M69 534h117l5 -82q43 94 156 94q85 0 129.5 -45.5q44.5 -45.5 44.5 -149.5v-351h-122v310q0 36 -6 60.5q-6 24.5 -18 39q-12 14.5 -31 20.5q-19 6 -46 6q-51 0 -79 -30q-28 -30 -28 -96v-310h-122zM323 769h156l-144 -151l-98 0z" />
<glyph unicode="&#325;" horiz-adv-x="740" d="M89 700h150l230 -397q12 -22 22 -42q10 -20 18 -36q9 -18 16 -36l2 0q-1 18 -2 36q-1 16 -1.5 36q-0.5 20 -0.5 42v397h128v-700h-150l-230 397q-13 23 -23 43q-10 20 -18 36q-9 18 -15 35l-2 0q1 -17 2 -35q1 -16 1.5 -36q0.5 -20 0.5 -43v-397h-128zM301 -178q29 1 50.5 7q21.5 6 26.5 29q-29 0 -47 3q-18 3 -27.5 9q-9.5 6 -13 14.5q-3.5 8.5 -3.5 19.5q0 20 18.5 34.5q18.5 14.5 64.5 14.5q43 0 63 -18.5q20 -18.5 20 -50.5q0 -22 -9.5 -42.5q-9.5 -20.5 -28.5 -37q-19 -16.5 -47 -26.5q-28 -10 -64 -11z" />
<glyph unicode="&#326;" horiz-adv-x="585" d="M69 534h117l5 -82q43 94 156 94q85 0 129.5 -45.5q44.5 -45.5 44.5 -149.5v-351h-122v310q0 36 -6 60.5q-6 24.5 -18 39q-12 14.5 -31 20.5q-19 6 -46 6q-51 0 -79 -30q-28 -30 -28 -96v-310h-122zM230 -179q32 2 51 9.5q19 7.5 23 28.5q-53 0 -70.5 11.5q-17.5 11.5 -17.5 33.5q0 20 18 34.5q18 14.5 61 14.5q40 0 59.5 -19q19.5 -19 19.5 -51q0 -21 -8.5 -41.5q-8.5 -20.5 -25.5 -36.5q-17 -16 -43.5 -26.5q-26.5 -10.5 -63.5 -11.5z" />
<glyph unicode="&#327;" horiz-adv-x="740" d="M89 700h150l230 -397q12 -22 22 -42q10 -20 18 -36q9 -18 16 -36l2 0q-1 18 -2 36q-1 16 -1.5 36q-0.5 20 -0.5 42v397h128v-700h-150l-230 397q-13 23 -23 43q-10 20 -18 36q-9 18 -15 35l-2 0q1 -17 2 -35q1 -16 1.5 -36q0.5 -20 0.5 -43v-397h-128zM186 915h103l81 -85l83 85h101l-119 -150l-130 0z" />
<glyph unicode="&#328;" horiz-adv-x="585" d="M69 534h117l5 -82q43 94 156 94q85 0 129.5 -45.5q44.5 -45.5 44.5 -149.5v-351h-122v310q0 36 -6 60.5q-6 24.5 -18 39q-12 14.5 -31 20.5q-19 6 -46 6q-51 0 -79 -30q-28 -30 -28 -96v-310h-122zM119 769h101l75 -87l77 87h99l-112 -151l-128 0z" />
<glyph unicode="&#332;" horiz-adv-x="710" d="M355 -13q-153 0 -231.5 85.5q-78.5 85.5 -78.5 277.5q0 190 79.5 276.5q79.5 86.5 230.5 86.5q78 0 136.5 -20q58.5 -20 97 -63.5q38.5 -43.5 57.5 -112.5q19 -69 19 -167q0 -190 -79.5 -276.5q-79.5 -86.5 -230.5 -86.5zt0 0zM355 102q44 0 77 12.5q33 12.5 55.5 41.5q22.5 29 34 76.5q11.5 47.5 11.5 117.5q0 70 -11.5 117.5q-11.5 47.5 -34 76.5q-22.5 29 -55.5 41.5q-33 12.5 -77 12.5q-44 0 -77 -12.5q-33 -12.5 -55.5 -41.5q-22.5 -29 -34 -76.5q-11.5 -47.5 -11.5 -117.5q0 -69 11.5 -116.5q11.5 -47.5 34 -77q22.5 -29.5 56 -42q33.5 -12.5 76.5 -12.5zt0 0zM198 874h314v-88l-314 0z" />
<glyph unicode="&#333;" horiz-adv-x="570" d="M285 -13q-122 0 -184 66.5q-62 66.5 -62 213.5q0 143 64 211q64 68 182 68q125 0 185.5 -64.5q60.5 -64.5 60.5 -214.5q0 -147 -62.5 -213.5q-62.5 -66.5 -183.5 -66.5zt0 0zM285 97q30 0 52.5 8.5q22.5 8.5 37.5 28q15 19.5 22.5 52.5q7.5 33 7.5 81q0 48 -7.5 80.5q-7.5 32.5 -22.5 52q-15 19.5 -37.5 28q-22.5 8.5 -52.5 8.5q-59 0 -89.5 -37.5q-30.5 -37.5 -30.5 -131.5q0 -48 7.5 -81q7.5 -33 22.5 -52.5q15 -19.5 37.5 -28q22.5 -8.5 52.5 -8.5zt0 0zM147 726h282v-84l-282 0z" />
<glyph unicode="&#336;" horiz-adv-x="710" d="M355 -13q-153 0 -231.5 85.5q-78.5 85.5 -78.5 277.5q0 190 79.5 276.5q79.5 86.5 230.5 86.5q78 0 136.5 -20q58.5 -20 97 -63.5q38.5 -43.5 57.5 -112.5q19 -69 19 -167q0 -190 -79.5 -276.5q-79.5 -86.5 -230.5 -86.5zt0 0zM355 102q44 0 77 12.5q33 12.5 55.5 41.5q22.5 29 34 76.5q11.5 47.5 11.5 117.5q0 70 -11.5 117.5q-11.5 47.5 -34 76.5q-22.5 29 -55.5 41.5q-33 12.5 -77 12.5q-44 0 -77 -12.5q-33 -12.5 -55.5 -41.5q-22.5 -29 -34 -76.5q-11.5 -47.5 -11.5 -117.5q0 -69 11.5 -116.5q11.5 -47.5 34 -77q22.5 -29.5 56 -42q33.5 -12.5 76.5 -12.5zt0 0zM272 915h130l-97 -150h-90zM484 915h147l-152 -150l-102 0z" />
<glyph unicode="&#337;" horiz-adv-x="570" d="M285 -13q-122 0 -184 66.5q-62 66.5 -62 213.5q0 143 64 211q64 68 182 68q125 0 185.5 -64.5q60.5 -64.5 60.5 -214.5q0 -147 -62.5 -213.5q-62.5 -66.5 -183.5 -66.5zt0 0zM285 97q30 0 52.5 8.5q22.5 8.5 37.5 28q15 19.5 22.5 52.5q7.5 33 7.5 81q0 48 -7.5 80.5q-7.5 32.5 -22.5 52q-15 19.5 -37.5 28q-22.5 8.5 -52.5 8.5q-59 0 -89.5 -37.5q-30.5 -37.5 -30.5 -131.5q0 -48 7.5 -81q7.5 -33 22.5 -52.5q15 -19.5 37.5 -28q22.5 -8.5 52.5 -8.5zt0 0zM197 769h128l-86 -151h-89zM400 769h146l-142 -151l-100 0z" />
<glyph unicode="&#338;" horiz-adv-x="935" d="M355 -13q-78 0 -136.5 20q-58.5 20 -97 64q-38.5 44 -57.5 114q-19 70 -19 170q0 189 78.5 273.5q78.5 84.5 231.5 84.5q41 0 75 -4q34 -4 57 -9l398 0v-114h-302v-176h262v-107h-262v-189h302v-114h-394q-23 -5 -57 -9q-34 -4 -79 -4zt0 0zM358 106q56 0 98 6l0 474q-21 4 -46 6q-25 2 -52 2q-45 0 -78.5 -12.5q-33.5 -12.5 -56.5 -41q-23 -28.5 -34.5 -74q-11.5 -45.5 -11.5 -111.5q0 -69 11.5 -117q11.5 -48 34.5 -77q23 -29 57 -42t78 -13z" />
<glyph unicode="&#339;" horiz-adv-x="920" d="M663 -13q-136 0 -193 85q-29 -44 -75.5 -64.5q-46.5 -20.5 -109.5 -20.5q-122 0 -184 66.5q-62 66.5 -62 213.5q0 143 64 211q64 68 182 68q65 0 111.5 -20q46.5 -20 75.5 -65q29 43 74.5 64q45.5 21 103.5 21q124 0 177.5 -64.5q53.5 -64.5 53.5 -188.5v-58h-350q3 -76 37.5 -110q34.5 -34 108.5 -34q51 0 98.5 16.5q47.5 16.5 73.5 40.5l0 -113q-29 -19 -73 -33.5q-44 -14.5 -113 -14.5zt0 0zM285 97q30 0 52.5 8.5q22.5 8.5 38 28q15.5 19.5 23 52.5q7.5 33 7.5 81q0 48 -7.5 80.5q-7.5 32.5 -22.5 52q-15 19.5 -38 28q-23 8.5 -53 8.5q-59 0 -89.5 -37.5q-30.5 -37.5 -30.5 -131.5q0 -48 7.5 -81q7.5 -33 22.5 -52.5q15 -19.5 37.5 -28q22.5 -8.5 52.5 -8.5zt0 0zM650 450q-58 0 -87 -31.5q-29 -31.5 -32 -105.5l228 0q0 69 -23 103t-86 34z" />
<glyph unicode="&#340;" horiz-adv-x="640" d="M323 247h-21h-85v-247h-128v695q32 2 66 5q29 2 66 4q37 2 74 2q73 0 123.5 -13q50.5 -13 81.5 -41q31 -28 45 -70.5q14 -42.5 14 -100.5q0 -83 -26.5 -135q-26.5 -52 -86.5 -76l155 -270h-142zM427 474q0 61 -28 87q-28 26 -97 26q-17 0 -33 -0.5q-16 -0.5 -28 -1.5q-14 -1 -27 -1l0 -223h88q67 0 96 27.5q29 27.5 29 85.5zt0 0zM342 915h158l-152 -150l-100 0z" />
<glyph unicode="&#341;" horiz-adv-x="410" d="M69 534h112l5 -85q19 51 53.5 74q34.5 23 79.5 23q20 0 34.5 -2.5q14.5 -2.5 17.5 -3.5l0 -127q-12 9 -32 16q-20 7 -46 7q-49 0 -75.5 -31.5q-26.5 -31.5 -26.5 -108.5v-296h-122zM248 769h156l-144 -151l-98 0z" />
<glyph unicode="&#342;" horiz-adv-x="640" d="M323 247h-21h-85v-247h-128v695q32 2 66 5q29 2 66 4q37 2 74 2q73 0 123.5 -13q50.5 -13 81.5 -41q31 -28 45 -70.5q14 -42.5 14 -100.5q0 -83 -26.5 -135q-26.5 -52 -86.5 -76l155 -270h-142zM427 474q0 61 -28 87q-28 26 -97 26q-17 0 -33 -0.5q-16 -0.5 -28 -1.5q-14 -1 -27 -1l0 -223h88q67 0 96 27.5q29 27.5 29 85.5zt0 0zM276 -178q29 1 50.5 7q21.5 6 26.5 29q-29 0 -47 3q-18 3 -27.5 9q-9.5 6 -13 14.5q-3.5 8.5 -3.5 19.5q0 20 18.5 34.5q18.5 14.5 64.5 14.5q43 0 63 -18.5q20 -18.5 20 -50.5q0 -22 -9.5 -42.5q-9.5 -20.5 -28.5 -37q-19 -16.5 -47 -26.5q-28 -10 -64 -11z" />
<glyph unicode="&#343;" horiz-adv-x="410" d="M69 534h112l5 -85q19 51 53.5 74q34.5 23 79.5 23q20 0 34.5 -2.5q14.5 -2.5 17.5 -3.5l0 -127q-12 9 -32 16q-20 7 -46 7q-49 0 -75.5 -31.5q-26.5 -31.5 -26.5 -108.5v-296h-122zM65 -179q32 2 51 9.5q19 7.5 23 28.5q-53 0 -70.5 11.5q-17.5 11.5 -17.5 33.5q0 20 18 34.5q18 14.5 61 14.5q40 0 59.5 -19q19.5 -19 19.5 -51q0 -21 -8.5 -41.5q-8.5 -20.5 -25.5 -36.5q-17 -16 -43.5 -26.5q-26.5 -10.5 -63.5 -11.5z" />
<glyph unicode="&#344;" horiz-adv-x="640" d="M323 247h-21h-85v-247h-128v695q32 2 66 5q29 2 66 4q37 2 74 2q73 0 123.5 -13q50.5 -13 81.5 -41q31 -28 45 -70.5q14 -42.5 14 -100.5q0 -83 -26.5 -135q-26.5 -52 -86.5 -76l155 -270h-142zM427 474q0 61 -28 87q-28 26 -97 26q-17 0 -33 -0.5q-16 -0.5 -28 -1.5q-14 -1 -27 -1l0 -223h88q67 0 96 27.5q29 27.5 29 85.5zt0 0zM123 915h103l81 -85l83 85h101l-119 -150l-130 0z" />
<glyph unicode="&#345;" horiz-adv-x="410" d="M69 534h112l5 -85q19 51 53.5 74q34.5 23 79.5 23q20 0 34.5 -2.5q14.5 -2.5 17.5 -3.5l0 -127q-12 9 -32 16q-20 7 -46 7q-49 0 -75.5 -31.5q-26.5 -31.5 -26.5 -108.5v-296h-122zM44 769h101l75 -87l77 87h99l-112 -151l-128 0z" />
<glyph unicode="&#346;" horiz-adv-x="580" d="M283 -13q-67 0 -122.5 15q-55.5 15 -89.5 36l0 139q13 -12 33.5 -24.5q20.5 -12.5 46.5 -23q26 -10.5 58 -17q32 -6.5 68 -6.5q64 0 90.5 22.5q26.5 22.5 26.5 61.5q0 38 -24.5 59.5q-24.5 21.5 -60.5 37q-36 15.5 -79 29.5q-43 14 -79 37q-36 23 -60.5 60.5q-24.5 37.5 -24.5 99.5q0 96 57 148q57 52 184 52q58 0 107.5 -10q49.5 -10 81.5 -25l0 -139q-33 26 -82.5 40.5q-49.5 14.5 -100.5 14.5q-34 0 -56 -5q-22 -5 -35 -14q-13 -9 -18.5 -23q-5.5 -14 -5.5 -32q0 -36 24.5 -56q24.5 -20 60.5 -34.5q36 -14.5 79 -28.5q43 -14 79 -37.5q36 -23.5 60.5 -63q24.5 -39.5 24.5 -103.5q0 -101 -58.5 -155.5q-58.5 -54.5 -184.5 -54.5zt0 0zM330 915h158l-152 -150l-100 0z" />
<glyph unicode="&#347;" horiz-adv-x="475" d="M223 -13q-38 0 -81 8q-43 8 -83 25l0 123q29 -25 71 -38.5q42 -13.5 90 -13.5q45 0 62.5 15q17.5 15 17.5 44q0 27 -18 41q-18 14 -45.5 23.5q-27.5 9.5 -59.5 18.5q-32 9 -59.5 26q-27.5 17 -45.5 45.5q-18 28.5 -18 77.5q0 82 45.5 123q45.5 41 153.5 41q39 0 79 -7q40 -7 69 -18l0 -122q-32 23 -66.5 33.5q-34.5 10.5 -77.5 10.5q-44 0 -60.5 -13.5q-16.5 -13.5 -16.5 -39.5q0 -25 18 -37.5q18 -12.5 45.5 -21.5q27.5 -9 59.5 -18q32 -9 59.5 -26.5q27.5 -17.5 45.5 -47.5q18 -30 18 -80q0 -86 -47 -129q-47 -43 -156 -43zt0 0zM268 769h156l-144 -151l-98 0z" />
<glyph unicode="&#348;" horiz-adv-x="580" d="M283 -13q-67 0 -122.5 15q-55.5 15 -89.5 36l0 139q13 -12 33.5 -24.5q20.5 -12.5 46.5 -23q26 -10.5 58 -17q32 -6.5 68 -6.5q64 0 90.5 22.5q26.5 22.5 26.5 61.5q0 38 -24.5 59.5q-24.5 21.5 -60.5 37q-36 15.5 -79 29.5q-43 14 -79 37q-36 23 -60.5 60.5q-24.5 37.5 -24.5 99.5q0 96 57 148q57 52 184 52q58 0 107.5 -10q49.5 -10 81.5 -25l0 -139q-33 26 -82.5 40.5q-49.5 14.5 -100.5 14.5q-34 0 -56 -5q-22 -5 -35 -14q-13 -9 -18.5 -23q-5.5 -14 -5.5 -32q0 -36 24.5 -56q24.5 -20 60.5 -34.5q36 -14.5 79 -28.5q43 -14 79 -37.5q36 -23.5 60.5 -63q24.5 -39.5 24.5 -103.5q0 -101 -58.5 -155.5q-58.5 -54.5 -184.5 -54.5zt0 0zM230 915h130l119 -150h-103l-81 85l-83 -85l-101 0z" />
<glyph unicode="&#349;" horiz-adv-x="475" d="M223 -13q-38 0 -81 8q-43 8 -83 25l0 123q29 -25 71 -38.5q42 -13.5 90 -13.5q45 0 62.5 15q17.5 15 17.5 44q0 27 -18 41q-18 14 -45.5 23.5q-27.5 9.5 -59.5 18.5q-32 9 -59.5 26q-27.5 17 -45.5 45.5q-18 28.5 -18 77.5q0 82 45.5 123q45.5 41 153.5 41q39 0 79 -7q40 -7 69 -18l0 -122q-32 23 -66.5 33.5q-34.5 10.5 -77.5 10.5q-44 0 -60.5 -13.5q-16.5 -13.5 -16.5 -39.5q0 -25 18 -37.5q18 -12.5 45.5 -21.5q27.5 -9 59.5 -18q32 -9 59.5 -26.5q27.5 -17.5 45.5 -47.5q18 -30 18 -80q0 -86 -47 -129q-47 -43 -156 -43zt0 0zM176 769h128l112 -151h-101l-74 88l-78 -88l-99 0z" />
<glyph unicode="&#350;" horiz-adv-x="580" d="M279 -226q-27 0 -46.5 3.5q-19.5 3.5 -37.5 11.5l10 58q28 -12 60 -12q27 0 38 10q11 10 11 28q0 19 -11.5 28.5q-11.5 9.5 -40.5 9.5q-8 0 -17 -0.5q-9 -0.5 -15 -1.5l14 80q-55 4 -99.5 17.5q-44.5 13.5 -73.5 31.5l0 139q13 -12 33.5 -24.5q20.5 -12.5 46.5 -23q26 -10.5 58 -17q32 -6.5 68 -6.5q64 0 90.5 22.5q26.5 22.5 26.5 61.5q0 38 -24.5 59.5q-24.5 21.5 -60.5 37q-36 15.5 -79 29.5q-43 14 -79 37q-36 23 -60.5 60.5q-24.5 37.5 -24.5 99.5q0 96 57 148q57 52 184 52q58 0 107.5 -10q49.5 -10 81.5 -25l0 -139q-33 26 -82.5 40.5q-49.5 14.5 -100.5 14.5q-34 0 -56 -5q-22 -5 -35 -14q-13 -9 -18.5 -23q-5.5 -14 -5.5 -32q0 -36 24.5 -56q24.5 -20 60.5 -34.5q36 -14.5 79 -28.5q43 -14 79 -37.5q36 -23.5 60.5 -63q24.5 -39.5 24.5 -103.5q0 -96 -51 -149q-51 -53 -162 -60l-6 -31q45 -1 72.5 -20.5q27.5 -19.5 27.5 -64.5q0 -45 -32.5 -71.5t-95.5 -26.5z" />
<glyph unicode="&#351;" horiz-adv-x="475" d="M224 -226q-27 0 -46.5 3.5q-19.5 3.5 -37.5 11.5l10 58q28 -12 60 -12q27 0 38 10q11 10 11 28q0 19 -11.5 28.5q-11.5 9.5 -40.5 9.5q-8 0 -17 -0.5q-9 -0.5 -15 -1.5l14 80q-32 2 -65.5 9.5q-33.5 7.5 -64.5 21.5l0 123q29 -25 71 -38.5q42 -13.5 90 -13.5q45 0 62.5 15q17.5 15 17.5 44q0 27 -18 41q-18 14 -45.5 23.5q-27.5 9.5 -59.5 18.5q-32 9 -59.5 26q-27.5 17 -45.5 45.5q-18 28.5 -18 77.5q0 82 45.5 123q45.5 41 153.5 41q39 0 79 -7q40 -7 69 -18l0 -122q-32 23 -66.5 33.5q-34.5 10.5 -77.5 10.5q-44 0 -60.5 -13.5q-16.5 -13.5 -16.5 -39.5q0 -25 18 -37.5q18 -12.5 45.5 -21.5q27.5 -9 59.5 -18q32 -9 59.5 -26.5q27.5 -17.5 45.5 -47.5q18 -30 18 -80q0 -79 -39 -121.5q-39 -42.5 -129 -49.5l-6 -31q45 -1 72.5 -20.5q27.5 -19.5 27.5 -64.5q0 -45 -32.5 -71.5t-95.5 -26.5z" />
<glyph unicode="&#352;" horiz-adv-x="580" d="M283 -13q-67 0 -122.5 15q-55.5 15 -89.5 36l0 139q13 -12 33.5 -24.5q20.5 -12.5 46.5 -23q26 -10.5 58 -17q32 -6.5 68 -6.5q64 0 90.5 22.5q26.5 22.5 26.5 61.5q0 38 -24.5 59.5q-24.5 21.5 -60.5 37q-36 15.5 -79 29.5q-43 14 -79 37q-36 23 -60.5 60.5q-24.5 37.5 -24.5 99.5q0 96 57 148q57 52 184 52q58 0 107.5 -10q49.5 -10 81.5 -25l0 -139q-33 26 -82.5 40.5q-49.5 14.5 -100.5 14.5q-34 0 -56 -5q-22 -5 -35 -14q-13 -9 -18.5 -23q-5.5 -14 -5.5 -32q0 -36 24.5 -56q24.5 -20 60.5 -34.5q36 -14.5 79 -28.5q43 -14 79 -37.5q36 -23.5 60.5 -63q24.5 -39.5 24.5 -103.5q0 -101 -58.5 -155.5q-58.5 -54.5 -184.5 -54.5zt0 0zM111 915h103l81 -85l83 85h101l-119 -150l-130 0z" />
<glyph unicode="&#353;" horiz-adv-x="475" d="M223 -13q-38 0 -81 8q-43 8 -83 25l0 123q29 -25 71 -38.5q42 -13.5 90 -13.5q45 0 62.5 15q17.5 15 17.5 44q0 27 -18 41q-18 14 -45.5 23.5q-27.5 9.5 -59.5 18.5q-32 9 -59.5 26q-27.5 17 -45.5 45.5q-18 28.5 -18 77.5q0 82 45.5 123q45.5 41 153.5 41q39 0 79 -7q40 -7 69 -18l0 -122q-32 23 -66.5 33.5q-34.5 10.5 -77.5 10.5q-44 0 -60.5 -13.5q-16.5 -13.5 -16.5 -39.5q0 -25 18 -37.5q18 -12.5 45.5 -21.5q27.5 -9 59.5 -18q32 -9 59.5 -26.5q27.5 -17.5 45.5 -47.5q18 -30 18 -80q0 -86 -47 -129q-47 -43 -156 -43zt0 0zM64 769h101l75 -87l77 87h99l-112 -151l-128 0z" />
</font>
</defs>
</svg>
