<?xml version="1.0" encoding="UTF-8" standalone="no"?>
<!DOCTYPE svg PUBLIC "-//W3C//DTD SVG 1.1//EN" "http://www.w3.org/Graphics/SVG/1.1/DTD/svg11.dtd" >
<svg xmlns="http://www.w3.org/2000/svg">
<metadata>
Generated by SVGconv.
Copyright   : Copyright (c) 2018 ParaType Inc., ParaType Ltd. All rights reserved.
Designer    : ParaType Ltd
Foundry     : ParaType Ltd
Foundry URL : http://www.paratype.com
</metadata>
<defs>
<font id="SBSansInterface-Regular" horiz-adv-x="565" >
<font-face units-per-em="1000" ascent="928" descent="244" >
<font-face-src>
<font-face-name/>
</font-face-src>
</font-face>
<missing-glyph horiz-adv-x="500" />
<glyph unicode="&#13;" horiz-adv-x="250" />
<glyph unicode="&#32;" horiz-adv-x="250" />
<glyph unicode="&#33;" horiz-adv-x="330" d="M165 -6q-64 0 -64 64q0 64 64 64q64 0 64 -64q0 -64 -64 -64zt0 0zM118 700h94l-5 -471l-84 0z" />
<glyph unicode="&#34;" horiz-adv-x="470" d="M93 700h78v-280h-78zM299 700h78v-280l-78 0z" />
<glyph unicode="&#35;" horiz-adv-x="600" d="M339 195h-133l-34 -195h-80l34 195h-101l14 74h100l29 162h-101l13 74h101l34 195h80l-34 -195h133l34 195h80l-34 -195h101l-13 -74h-101l-29 -162h101l-13 -74h-101l-34 -195h-80zM219 269h133l29 162l-133 0z" />
<glyph unicode="&#36;" horiz-adv-x="600" d="M268 -10q-57 3 -103.5 17.5q-46.5 14.5 -75.5 34.5l0 106q15 -13 35.5 -26q20.5 -13 46 -23.5q25.5 -10.5 55 -17q29.5 -6.5 62.5 -6.5q76 0 108.5 28.5q32.5 28.5 32.5 81.5q0 44 -25 69.5q-25 25.5 -63 42q-38 16.5 -82 30.5q-44 14 -82 37q-38 23 -63 59.5q-25 36.5 -25 98.5q0 81 42.5 128.5q42.5 47.5 136.5 57.5l0 92h74v-90q48 -2 87 -11q39 -9 65 -23l0 -106q-29 25 -76 40q-47 15 -96 15q-39 0 -65.5 -6q-26.5 -6 -42.5 -18.5q-16 -12.5 -22.5 -31.5q-6.5 -19 -6.5 -44q0 -43 25 -66.5q25 -23.5 63 -39q38 -15.5 81.5 -29q43.5 -13.5 81.5 -36.5q38 -23 63 -62q25 -39 25 -104q0 -85 -44 -135.5q-44 -50.5 -138 -60.5l0 -112l-74 0z" />
<glyph unicode="&#37;" horiz-adv-x="860" d="M625 700h75l-465 -700h-75zM233 374q-78 0 -120.5 43q-42.5 43 -42.5 123q0 79 43 122.5q43 43.5 120 43.5q78 0 121 -43q43 -43 43 -123q0 -79 -43 -122.5q-43 -43.5 -121 -43.5zt0 0zM233 438q46 0 70 24.5q24 24.5 24 77.5q0 53 -24 77.5q-24 24.5 -70 24.5q-46 0 -69.5 -24.5q-23.5 -24.5 -23.5 -77.5q0 -53 23.5 -77.5q23.5 -24.5 69.5 -24.5zt0 0zM627 -6q-78 0 -121 43q-43 43 -43 123q0 79 43 122.5q43 43.5 121 43.5q78 0 120.5 -43q42.5 -43 42.5 -123q0 -79 -43 -122.5q-43 -43.5 -120 -43.5zt0 0zM627 58q45 0 69 24.5q24 24.5 24 77.5q0 53 -24 77.5q-24 24.5 -69 24.5q-47 0 -70.5 -24.5q-23.5 -24.5 -23.5 -77.5q0 -53 23.5 -77.5t70.5 -24.5z" />
<glyph unicode="&#38;" horiz-adv-x="800" d="M304 -11q-113 0 -172.5 53q-59.5 53 -59.5 154q0 73 38.5 125.5q38.5 52.5 113.5 88.5q-23 42 -35 81q-12 39 -12 72q0 70 40.5 109q40.5 39 124.5 39q77 0 117 -36q40 -36 40 -102q0 -37 -13 -65.5q-13 -28.5 -36 -51q-23 -22.5 -55 -40q-32 -17.5 -70 -32.5q37 -58 86.5 -112q49.5 -54 108.5 -99q46 59 71.5 140q25.5 81 29.5 170l83 0q-5 -94 -35 -186q-30 -92 -85 -163q71 -43 134 -55l0 -90q-48 8 -96.5 30q-48.5 22 -94.5 56q-47 -42 -103.5 -64q-56.5 -22 -119.5 -22zt0 0zM312 68q42 0 80 13.5q38 13.5 71 41.5q-62 50 -114 108.5q-52 58.5 -90 120.5q-48 -23 -75 -57.5q-27 -34.5 -27 -87.5q0 -65 36.5 -102q36.5 -37 118.5 -37zt0 0zM337 639q-38 0 -60.5 -19q-22.5 -19 -22.5 -63q0 -25 10 -55q10 -30 28 -62q30 12 53.5 24q23.5 12 40 26.5q16.5 14.5 25.5 32q9 17.5 9 41.5q0 35 -19 55t-64 20z" />
<glyph unicode="&#39;" horiz-adv-x="270" d="M93 700h84v-280l-84 0z" />
<glyph unicode="&#40;" horiz-adv-x="380" d="M88 287q0 82 16 151q16 69 43 127.5q27 58.5 63 107.5q36 49 76 91l53 -43q-31 -40 -60 -84q-29 -44 -51.5 -96.5q-22.5 -52.5 -36 -115.5q-13.5 -63 -13.5 -139q0 -76 13.5 -138.5q13.5 -62.5 36 -115q22.5 -52.5 51.5 -96.5q29 -44 60 -84l-53 -43q-40 42 -76 91q-36 49 -63 107.5q-27 58.5 -43 128t-16 151.5z" />
<glyph unicode="&#41;" horiz-adv-x="380" d="M292 287q0 -82 -16 -151.5q-16 -69.5 -43 -128q-27 -58.5 -63 -107.5q-36 -49 -76 -91l-53 43q31 40 60 84q29 44 51.5 96.5q22.5 52.5 36 115q13.5 62.5 13.5 139.5q0 76 -13.5 138.5q-13.5 62.5 -36 115q-22.5 52.5 -51.5 96.5q-29 44 -60 84l53 43q40 -42 76 -91q36 -49 63 -107.5q27 -58.5 43 -127.5t16 -151z" />
<glyph unicode="&#42;" horiz-adv-x="500" d="M110 380l97 116l-140 37l22 77l135 -62l-13 152h78l-13 -152l134 62l23 -77l-140 -38l97 -115l-64 -45l-77 128l-76 -128z" />
<glyph unicode="&#43;" horiz-adv-x="600" d="M95 399h165v164h80v-164h165v-81h-165v-164h-80v164l-165 0z" />
<glyph unicode="&#44;" horiz-adv-x="320" d="M66 -110q44 15 68.5 44.5q24.5 29.5 27.5 59.5q-66 0 -66 64q0 64 64 64q37 0 53.5 -22q16.5 -22 16.5 -67q0 -35 -10 -66q-10 -31 -27.5 -56.5q-17.5 -25.5 -41 -44.5q-23.5 -19 -50.5 -30z" />
<glyph unicode="&#45;" horiz-adv-x="400" d="M45 315h310v-80l-310 0z" />
<glyph unicode="&#46;" horiz-adv-x="320" d="M160 -6q-64 0 -64 64q0 64 64 64q64 0 64 -64q0 -64 -64 -64z" />
<glyph unicode="&#47;" horiz-adv-x="400" d="M306 753h84l-296 -933l-84 0z" />
<glyph unicode="&#48;" horiz-adv-x="600" d="M300 -11q-56 0 -99.5 18q-43.5 18 -73.5 60q-30 42 -46 111q-16 69 -16 172q0 103 16 172.5q16 69.5 46 111.5q30 42 73.5 59.5q43.5 17.5 99.5 17.5q58 0 102.5 -16.5q44.5 -16.5 73.5 -58q29 -41.5 44 -111q15 -69.5 15 -175.5q0 -105 -15.5 -174.5q-15.5 -69.5 -45 -111q-29.5 -41.5 -73.5 -58.5q-44 -17 -101 -17zt0 0zM300 75q35 0 61 11q26 11 43.5 41q17.5 30 26 83.5q8.5 53.5 8.5 139.5q0 86 -8.5 139.5q-8.5 53.5 -26 83.5q-17.5 30 -43.5 41q-26 11 -61 11q-35 0 -61 -11q-26 -11 -43 -41.5q-17 -30.5 -26 -84q-9 -53.5 -9 -138.5q0 -83 9.5 -136.5q9.5 -53.5 27.5 -84.5q18 -31 44 -42.5t58 -11.5z" />
<glyph unicode="&#49;" horiz-adv-x="600" d="M116 80h191v514l-191 -123v89l218 140h65v-620h135v-80l-418 0z" />
<glyph unicode="&#50;" horiz-adv-x="600" d="M68 64q91 85 157 143.5q66 58.5 109.5 104q43.5 45.5 64.5 86q21 40.5 21 90.5q0 71 -36.5 104q-36.5 33 -113.5 33q-54 0 -101 -19.5q-47 -19.5 -84 -48.5l0 108q41 21 93 33.5q52 12.5 108 12.5q121 0 174.5 -53q53.5 -53 53.5 -152q0 -58 -18.5 -104q-18.5 -46 -57 -93q-38.5 -47 -97.5 -100.5q-59 -53.5 -140 -125.5l321 0v-83l-454 0z" />
<glyph unicode="&#51;" horiz-adv-x="600" d="M186 397h73q79 0 116 31.5q37 31.5 37 89.5q0 56 -31.5 82q-31.5 26 -110.5 26q-63 0 -111.5 -18.5q-48.5 -18.5 -79.5 -38.5l0 98q37 18 94 30.5q57 12.5 118 12.5q60 0 101.5 -11.5q41.5 -11.5 66.5 -33.5q25 -22 36 -55q11 -33 11 -75q0 -72 -34.5 -112q-34.5 -40 -101.5 -57q160 -16 160 -171q0 -102 -60 -154q-60 -52 -186 -52q-63 0 -121 12.5q-58 12.5 -93 31.5l0 108q33 -25 85 -45q52 -20 118 -20q49 0 80.5 9q31.5 9 49.5 25.5q18 16.5 25 40.5q7 24 7 53q0 56 -38.5 85q-38.5 29 -132.5 29l-78 0z" />
<glyph unicode="&#52;" horiz-adv-x="600" d="M363 181h-326v58l307 461h112v-436h92v-83h-92v-181h-93zM363 264v333l-220 -333z" />
<glyph unicode="&#53;" horiz-adv-x="600" d="M119 700h381v-83h-310l-15 -188q18 3 51 4.5q33 1.5 71 1.5q122 0 175 -53q53 -53 53 -155q0 -55 -13.5 -99q-13.5 -44 -43.5 -75q-30 -31 -79.5 -47.5q-49.5 -16.5 -121.5 -16.5q-48 0 -97 9q-49 9 -85 24l0 100q33 -23 81 -36q48 -13 95 -13q92 0 131.5 37q39.5 37 39.5 112q0 36 -8.5 61.5q-8.5 25.5 -29 41.5q-20.5 16 -53.5 23.5q-33 7.5 -81 7.5q-48 0 -92.5 -4q-44.5 -4 -73.5 -9z" />
<glyph unicode="&#54;" horiz-adv-x="600" d="M313 -11q-135 0 -193 83.5q-58 83.5 -58 249.5q0 204 76 296.5q76 92.5 222 92.5q40 0 74.5 -6q34.5 -6 61.5 -17l0 -99q-23 15 -56 26q-33 11 -87 11q-45 0 -83.5 -14.5q-38.5 -14.5 -66 -47q-27.5 -32.5 -43.5 -83.5q-16 -51 -16 -123q0 -5 0.5 -12.5q0.5 -7.5 0.5 -16.5q26 59 74 90.5q48 31.5 123 31.5q102 0 152.5 -57.5q50.5 -57.5 50.5 -158.5q0 -64 -17.5 -110.5q-17.5 -46.5 -49 -76.5q-31.5 -30 -74 -44.5q-42.5 -14.5 -91.5 -14.5zt0 0zM314 71q61 0 100 37q39 37 39 117q0 81 -34 115.5q-34 34.5 -103 34.5q-38 0 -65 -10.5q-27 -10.5 -46 -28q-19 -17.5 -30 -39q-11 -21.5 -15 -43.5q1 -86 39 -134.5t115 -48.5z" />
<glyph unicode="&#55;" horiz-adv-x="600" d="M425 617h-365v83h470v-60l-274 -640l-99 0z" />
<glyph unicode="&#56;" horiz-adv-x="600" d="M302 -11q-126 0 -183.5 53.5q-57.5 53.5 -57.5 149.5q0 32 6 60.5q6 28.5 21 51.5q15 23 41.5 40.5q26.5 17.5 67.5 26.5q-68 15 -94 54.5q-26 39.5 -26 105.5q0 83 53.5 131.5q53.5 48.5 170.5 48.5q116 0 167 -43.5q51 -43.5 51 -122.5q0 -33 -5 -60.5q-5 -27.5 -18 -49q-13 -21.5 -35.5 -37.5q-22.5 -16 -58.5 -25q40 -8 66.5 -23q26.5 -15 42 -37.5q15.5 -22.5 22 -52q6.5 -29.5 6.5 -65.5q0 -45 -13.5 -83q-13.5 -38 -42.5 -65.5q-29 -27.5 -73.5 -42.5q-44.5 -15 -107.5 -15zt0 0zM303 70q72 0 106.5 34q34.5 34 34.5 99q0 134 -142 131q-41 -1 -69 -10.5q-28 -9.5 -45 -26.5q-17 -17 -24.5 -40.5q-7.5 -23.5 -7.5 -51.5q0 -135 147 -135zt0 0zM303 399q37 1 61 10q24 9 38 25q14 16 19.5 37.5q5.5 21.5 5.5 47.5q0 59 -29 85q-29 26 -98 26q-72 0 -101 -30.5q-29 -30.5 -29 -84.5q0 -54 31 -86t102 -30z" />
<glyph unicode="&#57;" horiz-adv-x="600" d="M243 -11q-41 0 -75 7q-34 7 -61 18l0 99q23 -16 56 -27.5q33 -11.5 87 -11.5q45 0 83.5 14.5q38.5 14.5 66 47q27.5 32.5 43.5 83.5q16 51 16 123q0 8 0 15.5q0 7.5 -1 14.5q-25 -58 -72.5 -90q-47.5 -32 -122.5 -32q-103 0 -153.5 57.5q-50.5 57.5 -50.5 157.5q0 64 17.5 110.5q17.5 46.5 48.5 76.5q31 30 73 44.5q42 14.5 92 14.5q69 0 116.5 -21q47.5 -21 77.5 -63q30 -42 43.5 -105q13.5 -63 13.5 -148q0 -200 -76.5 -292.5q-76.5 -92.5 -221.5 -92.5zt0 0zM288 326q38 0 66 10.5q28 10.5 47 28q19 17.5 29.5 40.5q10.5 23 13.5 48q-2 83 -38.5 129.5q-36.5 46.5 -116.5 46.5q-61 0 -100 -37q-39 -37 -39 -117q0 -79 35 -114t103 -35z" />
<glyph unicode="&#58;" horiz-adv-x="330" d="M165 -6q-64 0 -64 64q0 64 64 64q64 0 64 -64q0 -64 -64 -64zt0 0zM165 384q-64 0 -64 64q0 64 64 64q64 0 64 -64q0 -64 -64 -64z" />
<glyph unicode="&#59;" horiz-adv-x="330" d="M71 -110q44 15 68.5 44.5q24.5 29.5 27.5 59.5q-66 0 -66 64q0 64 64 64q37 0 53.5 -22q16.5 -22 16.5 -67q0 -35 -10 -66q-10 -31 -27.5 -56.5q-17.5 -25.5 -41 -44.5q-23.5 -19 -50.5 -30zM165 384q-64 0 -64 64q0 64 64 64q64 0 64 -64q0 -64 -64 -64z" />
<glyph unicode="&#60;" horiz-adv-x="600" d="M95 318v78l410 199v-91l-310 -145l310 -145l0 -96z" />
<glyph unicode="&#61;" horiz-adv-x="600" d="M95 294h410v-80h-410zM95 500h410v-80l-410 0z" />
<glyph unicode="&#62;" horiz-adv-x="600" d="M505 396v-78l-410 -200v92l310 145l-310 145l0 95z" />
<glyph unicode="&#63;" horiz-adv-x="480" d="M195 -6q-64 0 -64 64q0 64 64 64q64 0 64 -64q0 -64 -64 -64zt0 0zM152 219q0 46 13.5 76q13.5 30 34.5 52q21 22 44.5 38.5q23.5 16.5 44.5 35q21 18.5 34.5 42.5q13.5 24 13.5 60q0 49 -30.5 76.5q-30.5 27.5 -99.5 27.5q-50 0 -88 -13.5q-38 -13.5 -69 -33.5l0 98q36 17 78 25q42 8 86 8q114 0 165 -46q51 -46 51 -134q0 -49 -14.5 -81.5q-14.5 -32.5 -35.5 -55.5q-21 -23 -46.5 -40q-25.5 -17 -46.5 -35.5q-21 -18.5 -35.5 -41.5q-14.5 -23 -14.5 -58z" />
<glyph unicode="&#64;" horiz-adv-x="900" d="M466 -131q-99 0 -173.5 30q-74.5 30 -124.5 84.5q-50 54.5 -75 131q-25 76.5 -25 169.5q0 91 25.5 168.5q25.5 77.5 75 133.5q49.5 56 123 87.5q73.5 31.5 169.5 31.5q87 0 155.5 -25.5q68.5 -25.5 116.5 -74q48 -48.5 73.5 -118q25.5 -69.5 25.5 -156.5q0 -69 -13.5 -119.5q-13.5 -50.5 -36.5 -83.5q-23 -33 -55 -49q-32 -16 -69 -16q-51 0 -75.5 22.5q-24.5 22.5 -30.5 76.5q-12 -48 -45 -73.5q-33 -25.5 -90 -25.5q-86 0 -122.5 55q-36.5 55 -36.5 170q0 118 46 172q46 54 123 54q29 0 49.5 -6.5q20.5 -6.5 34.5 -17.5q14 -11 22.5 -25.5q8.5 -14.5 13.5 -31.5l8 72h63v-309q0 -36 10.5 -53q10.5 -17 37.5 -17q20 0 39 10.5q19 10.5 34 34q15 23.5 24 62q9 38.5 9 95.5q0 150 -79 234q-79 84 -234 84q-82 0 -143.5 -25q-61.5 -25 -103 -72q-41.5 -47 -62 -114q-20.5 -67 -20.5 -152q0 -80 20 -145q20 -65 61.5 -112q41.5 -47 104.5 -72.5q63 -25.5 149 -25.5q48 0 95 11.5q47 11.5 77 31.5l0 -68q-32 -14 -77 -24q-45 -10 -94 -10zt0 0zM436 128q54 0 79 35q25 35 25 105v52q0 69 -25 99q-25 30 -73 30q-53 0 -80 -35q-27 -35 -27 -124q0 -83 20.5 -122.5t80.5 -39.5z" />
<glyph unicode="&#65;" horiz-adv-x="640" d="M270 700h100l250 -700h-99l-63 185h-281l-63 -185h-94zM205 265h225l-112 331z" />
<glyph unicode="&#66;" horiz-adv-x="625" d="M308 -6q-35 0 -72 1.5q-37 1.5 -67 3.5q-35 3 -68 6l0 690q33 2 68 5q30 2 66 4q36 2 70 2q70 0 116 -11q46 -11 74 -33.5q28 -22.5 39.5 -57q11.5 -34.5 11.5 -82.5q0 -126 -116 -158q139 -18 139 -165q0 -51 -14 -89q-14 -38 -44.5 -64q-30.5 -26 -80.5 -39q-50 -13 -122 -13zt0 0zM474 202q0 60 -33.5 89q-33.5 29 -118.5 29h-129v-238q16 -1 35 -2q17 -1 39 -1.5q22 -0.5 48 -0.5q46 0 76.5 7q30.5 7 49 22q18.5 15 26 38.5q7.5 23.5 7.5 56.5zt0 0zM450 513q0 30 -6.5 50.5q-6.5 20.5 -22.5 33.5q-16 13 -43.5 19q-27.5 6 -69.5 6q-24 0 -45 -0.5q-21 -0.5 -37 -1.5q-18 -1 -33 -1l0 -222h119q76 0 107 28.5t31 87.5z" />
<glyph unicode="&#67;" horiz-adv-x="575" d="M358 -11q-77 0 -134.5 20q-57.5 20 -96 64q-38.5 44 -58 113.5q-19.5 69.5 -19.5 168.5q0 93 20 160.5q20 67.5 58.5 111q38.5 43.5 95.5 64q57 20.5 131 20.5q37 0 67 -4.5q30 -4.5 53 -9.5q26 -6 47 -14l0 -96q-29 17 -70 27.5q-41 10.5 -96 10.5q-51 0 -90.5 -14.5q-39.5 -14.5 -66 -46.5q-26.5 -32 -40 -83.5q-13.5 -51.5 -13.5 -125.5q0 -77 14 -130q14 -53 41 -86.5q27 -33.5 67 -48.5q40 -15 92 -15q57 0 100.5 16q43.5 16 69.5 31l0 -97q-22 -10 -49 -18q-23 -7 -54.5 -12.5t-68.5 -5.5z" />
<glyph unicode="&#68;" horiz-adv-x="680" d="M290 -6q-34 0 -67.5 1.5q-33.5 1.5 -60.5 3.5q-32 3 -61 6l0 690q29 2 61 5q27 2 61.5 4q34.5 2 69.5 2q90 0 154 -19q64 -19 104.5 -60.5q40.5 -41.5 59.5 -108q19 -66.5 19 -160.5q0 -190 -84 -277q-84 -87 -256 -87zt0 0zM534 358q0 75 -12.5 125q-12.5 50 -40.5 80q-28 30 -74 43q-46 13 -112 13q-22 0 -40.5 -1q-18.5 -1 -32.5 -2q-16 -1 -29 -2l0 -528q12 -2 28 -3q14 -1 31.5 -1.5q17.5 -0.5 39.5 -0.5q63 0 108.5 14.5q45.5 14.5 75.5 47.5q30 33 44 86t14 129z" />
<glyph unicode="&#69;" horiz-adv-x="575" d="M101 700h419v-83h-327v-218h287v-81h-287v-235h327v-83l-419 0z" />
<glyph unicode="&#70;" horiz-adv-x="545" d="M101 701h399v-84h-307v-238h277v-84h-277v-295l-92 0z" />
<glyph unicode="&#71;" horiz-adv-x="650" d="M377 -11q-83 0 -144.5 20.5q-61.5 20.5 -102 64.5q-40.5 44 -60.5 113.5q-20 69.5 -20 167.5q0 184 83 270q83 86 244 86q38 0 68 -4.5q30 -4.5 51 -9.5q25 -6 44 -14l0 -96q-28 14 -70 26q-42 12 -93 12q-116 0 -173.5 -62.5q-57.5 -62.5 -57.5 -207.5q0 -77 14 -130.5q14 -53.5 42.5 -86.5q28.5 -33 72 -48q43.5 -15 102.5 -15q32 0 61 4.5q29 4.5 52 12.5l0 188h-133v80h223v-327q-28 -14 -81 -29t-122 -15z" />
<glyph unicode="&#72;" horiz-adv-x="720" d="M101 700h92v-299h334v299h92v-700h-92v317h-334v-317l-92 0z" />
<glyph unicode="&#73;" horiz-adv-x="330" d="M119 700h92v-700l-92 0z" />
<glyph unicode="&#74;" horiz-adv-x="420" d="M140 -11q-24 0 -43 2.5q-19 2.5 -33 6.5q-16 4 -29 9l0 97q11 -9 25 -15q12 -5 30 -9.5q18 -4.5 41 -4.5q46 0 68 24.5q22 24.5 22 83.5v517h93v-517q0 -105 -42 -149.5t-132 -44.5z" />
<glyph unicode="&#75;" horiz-adv-x="655" d="M266 317h-73v-317h-92v700h92v-300h73l231 300h113l-266 -340l286 -360l-116 0z" />
<glyph unicode="&#76;" horiz-adv-x="530" d="M101 700h92v-617h307v-83l-399 0z" />
<glyph unicode="&#77;" horiz-adv-x="850" d="M101 700h115l211 -430l211 430h111v-700h-90v459q0 18 0 31q0 13 0.5 26q0.5 13 1 26q0.5 13 2.5 31l-3 0q-6 -18 -11.5 -31q-5.5 -13 -11 -25.5q-5.5 -12.5 -12.5 -26q-7 -13.5 -16 -31.5l-145 -295h-78l-145 295q-9 18 -15.5 31.5q-6.5 13.5 -12 26q-5.5 12.5 -11 25.5q-5.5 13 -12.5 31l-3 0q1 -18 2 -31q1 -13 1.5 -26q0.5 -13 0.5 -26q0 -13 0 -31v-459l-90 0z" />
<glyph unicode="&#78;" horiz-adv-x="740" d="M101 700h103l286 -454q12 -20 22.5 -39q10.5 -19 18.5 -34q9 -18 17 -33l2 0q-1 15 -2 33q-1 15 -1 34q0 19 0 39v454h92v-700h-103l-286 454q-14 23 -24.5 42q-10.5 19 -18.5 33q-9 17 -15 31l-2 0q0 -14 1 -31q1 -14 1.5 -33q0.5 -19 0.5 -42v-454l-92 0z" />
<glyph unicode="&#79;" horiz-adv-x="710" d="M355 -11q-74 0 -130.5 21q-56.5 21 -95.5 65q-39 44 -59 112q-20 68 -20 163q0 95 20 163q20 68 59 112q39 44 95.5 65q56.5 21 130.5 21q76 0 133 -20q57 -20 95.5 -63.5q38.5 -43.5 57.5 -112q19 -68.5 19 -165.5q0 -95 -20 -163q-20 -68 -59 -112q-39 -44 -96 -65q-57 -21 -130 -21zt0 0zM355 73q51 0 90 14.5q39 14.5 65.5 47.5q26.5 33 40 86q13.5 53 13.5 129q0 76 -13.5 129q-13.5 53 -40 86q-26.5 33 -65.5 47.5q-39 14.5 -90 14.5q-50 0 -89 -15q-39 -15 -65.5 -48q-26.5 -33 -40.5 -85.5q-14 -52.5 -14 -128.5q0 -75 14 -127.5q14 -52.5 40.5 -86q26.5 -33.5 65.5 -48.5t89 -15z" />
<glyph unicode="&#80;" horiz-adv-x="620" d="M101 695q29 2 62 5q28 2 62.5 4q34.5 2 71.5 2q75 0 127 -14q52 -14 84.5 -43.5q32.5 -29.5 47 -74q14.5 -44.5 14.5 -105.5q0 -122 -65.5 -184q-65.5 -62 -207.5 -62q-23 0 -42 0.5q-19 0.5 -33 1.5q-16 1 -29 3l0 -228h-92zM474 469q0 40 -8.5 68.5q-8.5 28.5 -29 46.5q-20.5 18 -54.5 26.5q-34 8.5 -85 8.5q-23 0 -42 -1q-19 -1 -33 -2q-16 -1 -29 -2l0 -299q13 -2 29 -3q14 -1 33 -1.5q19 -0.5 42 -0.5q97 0 137 37.5t40 121.5z" />
<glyph unicode="&#81;" horiz-adv-x="710" d="M353 -11q-73 0 -129.5 21q-56.5 21 -95 65q-38.5 44 -58.5 112q-20 68 -20 163q0 95 20 163q20 68 59 112q39 44 95.5 65q56.5 21 130.5 21q76 0 133 -20q57 -20 95.5 -63.5q38.5 -43.5 57.5 -112q19 -68.5 19 -165.5q0 -155 -52 -239q-52 -84 -152 -110l133 -161h-113zM355 73q51 0 90 14.5q39 14.5 65.5 47.5q26.5 33 40 86q13.5 53 13.5 129q0 76 -13.5 129q-13.5 53 -40 86q-26.5 33 -65.5 47.5q-39 14.5 -90 14.5q-50 0 -89 -15q-39 -15 -65.5 -48q-26.5 -33 -40.5 -85.5q-14 -52.5 -14 -128.5q0 -75 14 -127.5q14 -52.5 40.5 -86q26.5 -33.5 65.5 -48.5t89 -15z" />
<glyph unicode="&#82;" horiz-adv-x="640" d="M333 269q-10 -1 -19.5 -1q-9.5 0 -20.5 0h-100v-268h-92v695q27 2 58 5q26 2 60 4q34 2 71 2q70 0 119 -13q49 -13 79.5 -40q30.5 -27 44 -68q13.5 -41 13.5 -96q0 -78 -29.5 -128.5q-29.5 -50.5 -93.5 -73.5l166 -287h-104zM450 486q0 36 -8 61q-8 25 -26 41q-18 16 -48 23.5q-30 7.5 -75 7.5q-20 0 -38 -0.5q-18 -0.5 -32 -1.5q-17 -1 -31 -1l0 -264h101q84 0 120.5 33.5t36.5 100.5z" />
<glyph unicode="&#83;" horiz-adv-x="580" d="M282 -11q-64 0 -117.5 15.5q-53.5 15.5 -85.5 37.5l0 106q15 -13 35.5 -26q20.5 -13 46 -23.5q25.5 -10.5 55 -17q29.5 -6.5 62.5 -6.5q76 0 108.5 28.5q32.5 28.5 32.5 81.5q0 44 -25 69.5q-25 25.5 -63 42q-38 16.5 -82 30.5q-44 14 -82 37q-38 23 -63 59.5q-25 36.5 -25 98.5q0 91 54 140q54 49 175 49q55 0 101 -10q46 -10 75 -25l0 -106q-29 25 -76 40q-47 15 -96 15q-39 0 -65.5 -6q-26.5 -6 -42.5 -18.5q-16 -12.5 -22.5 -31.5q-6.5 -19 -6.5 -44q0 -43 25 -66.5q25 -23.5 63 -39q38 -15.5 81.5 -29q43.5 -13.5 81.5 -36.5q38 -23 63 -62q25 -39 25 -104q0 -95 -56 -147t-176 -52z" />
<glyph unicode="&#84;" horiz-adv-x="580" d="M244 617h-209v83h510v-83h-209v-617l-92 0z" />
<glyph unicode="&#85;" horiz-adv-x="670" d="M335 -11q-66 0 -114 15.5q-48 15.5 -79.5 49q-31.5 33.5 -46.5 87q-15 53.5 -15 129.5v430h93v-426q0 -57 9 -95q9 -38 28.5 -61.5q19.5 -23.5 50 -33q30.5 -9.5 74.5 -9.5q44 0 75 9.5q31 9.5 50.5 32.5q19.5 23 28 61q8.5 38 8.5 96v426h93v-430q0 -75 -15.5 -128.5q-15.5 -53.5 -47 -87.5q-31.5 -34 -79.5 -49.5t-113 -15.5z" />
<glyph unicode="&#86;" horiz-adv-x="620" d="M20 700h101l196 -589l187 589h96l-230 -700l-110 0z" />
<glyph unicode="&#87;" horiz-adv-x="900" d="M30 700h98l102 -456q4 -18 6.5 -31.5q2.5 -13.5 4.5 -26q2 -12.5 4.5 -25.5q2.5 -13 5.5 -31l3 0q3 18 6 31q3 13 5.5 25.5q2.5 12.5 5.5 26q3 13.5 8 31.5l119 456h104l122 -456q5 -18 8 -31.5q3 -13.5 6 -26q3 -12.5 5.5 -25.5q2.5 -13 6.5 -31l2 0q3 18 5 31q2 13 4.5 26q2.5 13 5 26q2.5 13 6.5 31l102 456h95l-158 -700h-110l-125 469q-6 21 -11 41.5q-5 20.5 -9 36.5q-4 18 -7 36l-3 0q-3 -18 -7 -36q-4 -16 -9 -36.5q-5 -20.5 -10 -41.5l-123 -469l-110 0z" />
<glyph unicode="&#88;" horiz-adv-x="630" d="M257 359l-218 341h107l170 -266l170 266h105l-218 -339l232 -361h-109l-182 285l-183 -285l-106 0z" />
<glyph unicode="&#89;" horiz-adv-x="610" d="M264 271l-244 429h106l185 -332l178 332h101l-234 -429v-271l-92 0z" />
<glyph unicode="&#90;" horiz-adv-x="590" d="M50 61l361 556h-351v83h470v-61l-361 -556h371v-83l-490 0z" />
<glyph unicode="&#91;" horiz-adv-x="380" d="M108 753h231v-77h-147v-779h147v-77l-231 0z" />
<glyph unicode="&#92;" horiz-adv-x="400" d="M10 753h88l292 -933l-88 0z" />
<glyph unicode="&#93;" horiz-adv-x="380" d="M41 -103h147v779h-147v77h231v-933l-231 0z" />
<glyph unicode="&#94;" horiz-adv-x="600" d="M259 700h82l184 -343h-82l-144 274l-144 -274l-80 0z" />
<glyph unicode="&#95;" horiz-adv-x="420" d="M0 -112h420v-68l-420 0z" />
<glyph unicode="&#96;" horiz-adv-x="300" d="M51 756h118l80 -139l-75 0z" />
<glyph unicode="&#97;" horiz-adv-x="535" d="M215 -11q-81 0 -122.5 41q-41.5 41 -41.5 117q0 40 10.5 69.5q10.5 29.5 35.5 49.5q25 20 65 30q40 10 99 10h110v47q0 56 -26 79.5q-26 23.5 -96 23.5q-47 0 -88 -13q-41 -13 -69 -32l0 92q29 14 74 24q45 10 95 10q54 0 92 -10.5q38 -10.5 61.5 -33q23.5 -22.5 34 -57.5q10.5 -35 10.5 -85v-351h-79l-5 90q-18 -42 -57 -71.5q-39 -29.5 -103 -29.5zt0 0zM238 67q62 0 97.5 36.5q35.5 36.5 35.5 104.5v36h-104q-72 0 -99 -22.5q-27 -22.5 -27 -70.5q0 -42 23 -63t74 -21z" />
<glyph unicode="&#98;" horiz-adv-x="590" d="M331 -11q-35 0 -61.5 8q-26.5 8 -46 21.5q-19.5 13.5 -32.5 31.5q-13 18 -22 37l-6 -87h-82v753h88v-312q11 20 26 37.5q15 17.5 35.5 30.5q20.5 13 48 20.5q27.5 7.5 63.5 7.5q49 0 86 -14.5q37 -14.5 61.5 -46.5q24.5 -32 37 -83q12.5 -51 12.5 -125q0 -76 -13 -129q-13 -53 -39.5 -86.5q-26.5 -33.5 -65.5 -48.5q-39 -15 -90 -15zt0 0zM309 70q35 0 61.5 9.5q26.5 9.5 44 32.5q17.5 23 26 61q8.5 38 8.5 95q0 53 -8.5 89q-8.5 36 -25.5 58q-17 22 -42.5 31.5q-25.5 9.5 -59.5 9.5q-70 0 -107 -39.5q-37 -39.5 -37 -120.5v-66q0 -78 38 -119t102 -41z" />
<glyph unicode="&#99;" horiz-adv-x="475" d="M300 -11q-63 0 -110 15.5q-47 15.5 -77.5 49.5q-30.5 34 -46 87q-15.5 53 -15.5 127q0 139 62 204q62 65 180 65q54 0 89 -9.5q35 -9.5 49 -15.5l0 -95q-23 16 -56 27.5q-33 11.5 -75 11.5q-78 0 -118.5 -44q-40.5 -44 -40.5 -144q0 -106 42 -152q42 -46 127 -46q37 0 73 12.5q36 12.5 57 29.5l0 -91q-14 -8 -49.5 -20t-90.5 -12z" />
<glyph unicode="&#100;" horiz-adv-x="590" d="M421 89q-9 -20 -22.5 -38q-13.5 -18 -33.5 -31.5q-20 -13.5 -47 -22q-27 -8.5 -62 -8.5q-51 0 -89.5 15q-38.5 15 -64 48q-25.5 33 -38.5 86q-13 53 -13 130q0 141 52 205q52 64 149 64q66 0 109 -26.5q43 -26.5 60 -71.5l0 314h88v-753h-82zM141 268q0 -56 9 -94q9 -38 26.5 -61q17.5 -23 43.5 -33q26 -10 61 -10q64 0 102 41q38 41 38 121v67q0 72 -34.5 114.5q-34.5 42.5 -109.5 42.5q-68 0 -102 -42t-34 -146z" />
<glyph unicode="&#101;" horiz-adv-x="550" d="M297 -11q-127 0 -186.5 66.5q-59.5 66.5 -59.5 210.5q0 139 61 205q61 66 168 66q114 0 166.5 -61q52.5 -61 52.5 -195v-41h-360q2 -89 41 -131q39 -42 123 -42q50 0 93 16.5q43 16.5 70 39.5l0 -88q-25 -17 -66.5 -31.5q-41.5 -14.5 -102.5 -14.5zt0 0zM280 462q-68 0 -103.5 -37q-35.5 -37 -37.5 -121l272 0q0 37 -6.5 66.5q-6.5 29.5 -21.5 50q-15 20.5 -40 31t-63 10.5z" />
<glyph unicode="&#102;" horiz-adv-x="400" d="M129 447h-94v79h94v73q0 85 36.5 122.5q36.5 37.5 117.5 37.5q26 0 47 -3q21 -3 35 -8l0 -88q-12 7 -31 12q-19 5 -43 5q-41 0 -57.5 -19q-16.5 -19 -16.5 -71v-61h148v-79h-148v-447l-88 0z" />
<glyph unicode="&#103;" horiz-adv-x="590" d="M272 -191q-60 0 -106.5 11q-46.5 11 -73.5 25l0 102q10 -9 27.5 -19.5q17.5 -10.5 40.5 -18.5q23 -8 50.5 -13.5q27.5 -5.5 59.5 -5.5q81 0 116 34q35 34 35 105v76q-9 -20 -22.5 -38q-13.5 -18 -33.5 -31.5q-20 -13.5 -47 -22q-27 -8.5 -62 -8.5q-102 0 -153.5 62q-51.5 62 -51.5 205q0 138 52 201.5q52 63.5 149 63.5q66 0 109 -26.5q43 -26.5 60 -71.5l6 87h82v-491q0 -118 -57.5 -172q-57.5 -54 -179.5 -54zt0 0zM281 86q64 0 102 42q38 42 38 119v57q0 34 -8.5 62q-8.5 28 -26.5 48q-18 20 -45 31q-27 11 -64 11q-68 0 -102 -41q-34 -41 -34 -139q0 -53 9 -89.5q9 -36.5 26.5 -59q17.5 -22.5 43.5 -32t61 -9.5z" />
<glyph unicode="&#104;" horiz-adv-x="585" d="M81 753h88v-316q22 48 61 74q39 26 102 26q89 0 133 -46q44 -46 44 -152v-339h-88v308q0 42 -6.5 70.5q-6.5 28.5 -21 46q-14.5 17.5 -37 24.5q-22.5 7 -54.5 7q-63 0 -98 -37q-35 -37 -35 -111v-308l-88 0z" />
<glyph unicode="&#105;" horiz-adv-x="290" d="M101 526h88v-526h-88zM145 632q-56 0 -56 54q0 54 56 54q56 0 56 -54q0 -54 -56 -54z" />
<glyph unicode="&#106;" horiz-adv-x="290" d="M53 -186q-26 0 -46.5 4q-20.5 4 -27.5 8l0 88q11 -8 26.5 -13q15.5 -5 34.5 -5q32 0 46.5 17q14.5 17 14.5 63v550h88v-553q0 -85 -34 -122q-34 -37 -102 -37zt0 0zM145 632q-56 0 -56 54q0 54 56 54q56 0 56 -54q0 -54 -56 -54z" />
<glyph unicode="&#107;" horiz-adv-x="555" d="M81 753h88v-440h60l167 213h103l-199 -251l219 -275h-106l-184 234h-60v-234l-88 0z" />
<glyph unicode="&#108;" horiz-adv-x="315" d="M205 -6q-67 0 -98 32q-31 32 -31 100v627h88v-610q0 -39 13 -52.5q13 -13.5 44 -13.5q17 0 34 5q17 5 25 9l0 -82q-8 -3 -28 -9t-47 -6z" />
<glyph unicode="&#109;" horiz-adv-x="835" d="M81 526h82l6 -87q20 49 55.5 73.5q35.5 24.5 90.5 24.5q60 0 94 -28.5q34 -28.5 44 -79.5q22 61 60.5 84.5q38.5 23.5 95.5 23.5q69 0 109.5 -45q40.5 -45 40.5 -142v-350h-88v323q0 73 -25.5 103q-25.5 30 -73.5 30q-49 0 -78.5 -32.5q-29.5 -32.5 -29.5 -100.5v-323h-88v323q0 73 -25 103q-25 30 -72 30q-51 0 -80.5 -32.5q-29.5 -32.5 -29.5 -100.5v-323l-88 0z" />
<glyph unicode="&#110;" horiz-adv-x="585" d="M81 526h82l6 -89q22 48 61 74q39 26 102 26q89 0 133 -46q44 -46 44 -152v-339h-88v310q0 42 -6.5 70q-6.5 28 -21 45q-14.5 17 -37 24q-22.5 7 -54.5 7q-63 0 -98 -37q-35 -37 -35 -109v-310l-88 0z" />
<glyph unicode="&#111;" horiz-adv-x="570" d="M285 -11q-115 0 -174.5 65q-59.5 65 -59.5 209q0 140 62 207q62 67 172 67q117 0 175.5 -63.5q58.5 -63.5 58.5 -210.5q0 -144 -60.5 -209q-60.5 -65 -173.5 -65zt0 0zM285 70q36 0 63 10q27 10 45 32.5q18 22.5 27 59.5q9 37 9 91q0 54 -9 91q-9 37 -27 59.5q-18 22.5 -45 32.5q-27 10 -63 10q-69 0 -106.5 -43.5q-37.5 -43.5 -37.5 -149.5q0 -54 9 -91q9 -37 27 -59.5q18 -22.5 45 -32.5t63 -10z" />
<glyph unicode="&#112;" horiz-adv-x="590" d="M81 526h82l6 -85q11 20 26 37.5q15 17.5 35.5 30.5q20.5 13 48 20.5q27.5 7.5 63.5 7.5q49 0 86 -14.5q37 -14.5 61.5 -46.5q24.5 -32 37 -83q12.5 -51 12.5 -125q0 -76 -13 -129q-13 -53 -39.5 -86.5q-26.5 -33.5 -65.5 -48.5q-39 -15 -90 -15q-35 0 -61.5 8q-26.5 8 -46 21.5q-19.5 13.5 -32.5 31.5q-13 18 -22 37l0 -267h-88zM449 268q0 53 -8.5 89q-8.5 36 -25.5 58q-17 22 -42.5 31.5q-25.5 9.5 -59.5 9.5q-70 0 -107 -39.5q-37 -39.5 -37 -120.5v-66q0 -78 38 -119q38 -41 103 -41q35 0 61 9.5q26 9.5 43.5 32.5q17.5 23 26 61t8.5 95z" />
<glyph unicode="&#113;" horiz-adv-x="590" d="M421 89q-9 -20 -22.5 -38q-13.5 -18 -33.5 -31.5q-20 -13.5 -47 -22q-27 -8.5 -62 -8.5q-51 0 -89.5 15q-38.5 15 -64 48q-25.5 33 -38.5 86q-13 53 -13 130q0 141 52 205q52 64 149 64q66 0 109 -26.5q43 -26.5 60 -71.5l6 87h82v-706h-88zM141 268q0 -56 9 -94q9 -38 26.5 -61q17.5 -23 43.5 -33q26 -10 61 -10q64 0 102 41q38 41 38 121v67q0 72 -34.5 114.5q-34.5 42.5 -109.5 42.5q-68 0 -102 -42t-34 -146z" />
<glyph unicode="&#114;" horiz-adv-x="410" d="M81 526h77l6 -90q19 54 55.5 77.5q36.5 23.5 87.5 23.5q17 0 31.5 -2.5q14.5 -2.5 20.5 -4.5l0 -95q-13 9 -31 15q-18 6 -44 6q-54 0 -84.5 -35.5q-30.5 -35.5 -30.5 -116.5v-304l-88 0z" />
<glyph unicode="&#115;" horiz-adv-x="475" d="M227 -11q-86 0 -156 31l0 98q29 -25 68.5 -38q39.5 -13 85.5 -13q54 0 76.5 20q22.5 20 22.5 58q0 32 -19 48.5q-19 16.5 -48 26.5q-29 10 -62 18.5q-33 8.5 -62 24.5q-29 16 -48 43.5q-19 27.5 -19 76.5q0 76 43 115q43 39 143 39q40 0 77 -7.5q37 -7.5 60 -16.5l0 -95q-29 20 -62.5 30.5q-33.5 10.5 -73.5 10.5q-54 0 -75.5 -18q-21.5 -18 -21.5 -51q0 -30 19 -45.5q19 -15.5 48 -25q29 -9.5 62 -18q33 -8.5 62 -25q29 -16.5 48 -45.5q19 -29 19 -80q0 -81 -44 -121.5t-143 -40.5z" />
<glyph unicode="&#116;" horiz-adv-x="435" d="M277 -6q-78 0 -113 38q-35 38 -35 124v291h-94v79h94v105l88 30v-135h168v-79h-168v-284q0 -48 17 -67.5q17 -19.5 56 -19.5q31 0 54 9q23 9 41 22l0 -88q-14 -10 -43.5 -17.5t-64.5 -7.5z" />
<glyph unicode="&#117;" horiz-adv-x="580" d="M249 -11q-85 0 -129 46q-44 46 -44 152v339h88v-310q0 -42 6.5 -70q6.5 -28 20.5 -45q14 -17 36 -24q22 -7 52 -7q62 0 97 37q35 37 35 109v310h88v-526h-82l-6 89q-22 -45 -60.5 -72.5t-101.5 -27.5z" />
<glyph unicode="&#118;" horiz-adv-x="520" d="M20 526h96l146 -422l146 422h92l-191 -526l-98 0z" />
<glyph unicode="&#119;" horiz-adv-x="760" d="M36 526h91l79 -335l11 -55l5 -25h2l5 25q2 11 5.5 25.5q3.5 14.5 7.5 29.5l94 335h92l95 -335q4 -15 7.5 -29.5q3.5 -14.5 5.5 -25.5l5 -25h2q2 12 4 25q2 11 4 25.5q2 14.5 6 29.5l79 335h88l-124 -526h-104l-96 339q-9 30 -14 55l-5 25h-2q-2 -12 -6 -25q-3 -11 -6.5 -25.5q-3.5 -14.5 -7.5 -29.5l-95 -339l-104 0z" />
<glyph unicode="&#120;" horiz-adv-x="540" d="M214 272l-165 254h100l122 -188l123 188h97l-165 -252l178 -274h-100l-135 210l-136 -210l-97 0z" />
<glyph unicode="&#121;" horiz-adv-x="520" d="M161 -191q-20 0 -37 4q-17 4 -22 7l0 86q9 -7 21 -11.5q12 -4.5 29 -4.5q12 0 22 3.5q10 3.5 19.5 15.5q9.5 12 19 33.5q9.5 21.5 20.5 57.5l-213 526h96l159 -409l133 409h92l-180 -529q-21 -62 -39 -99q-18 -37 -36.5 -56.5q-18.5 -19.5 -38.5 -26t-45 -6.5z" />
<glyph unicode="&#122;" horiz-adv-x="490" d="M45 55l279 392h-269v79h383v-55l-278 -392h285v-79l-400 0z" />
<glyph unicode="&#123;" horiz-adv-x="380" d="M275 -180q-44 0 -74 12.5q-30 12.5 -48 34q-18 21.5 -25.5 50.5q-7.5 29 -7.5 62v171q0 48 -19.5 74q-19.5 26 -57.5 28l0 69q38 2 57.5 29q19.5 27 19.5 74v174q0 33 7.5 61q7.5 28 25.5 49q18 21 48 33q30 12 74 12h64v-77h-52q-48 0 -65 -25q-17 -25 -17 -67v-161q0 -27 -3 -49q-3 -22 -12 -39q-9 -17 -25.5 -29q-16.5 -12 -42.5 -19q26 -6 42.5 -18.5q16.5 -12.5 25.5 -30.5q9 -18 12 -41q3 -23 3 -49v-155q0 -42 17 -69q17 -27 65 -27h52l0 -77z" />
<glyph unicode="&#124;" horiz-adv-x="300" d="M108 753h84v-933l-84 0z" />
<glyph unicode="&#125;" horiz-adv-x="380" d="M41 -103h52q48 0 65 25q17 25 17 67v161q0 27 3 49q3 22 12 39q9 17 25.5 29q16.5 12 42.5 20q-26 6 -42.5 18q-16.5 12 -25.5 30q-9 18 -12 41q-3 23 -3 50v158q0 42 -17 67q-17 25 -65 25h-52v77h64q44 0 74 -12q30 -12 48 -33q18 -21 25.5 -49q7.5 -28 7.5 -61v-175q0 -48 19.5 -74q19.5 -26 57.5 -28l0 -69q-38 -2 -57.5 -29q-19.5 -27 -19.5 -74v-174q0 -33 -7.5 -61q-7.5 -28 -25.5 -49q-18 -21 -48 -33q-30 -12 -74 -12l-64 0z" />
<glyph unicode="&#126;" horiz-adv-x="600" d="M95 389q19 22 43.5 35.5q24.5 13.5 59.5 13.5q33 0 60 -12q27 -12 50.5 -26q23.5 -14 46 -26q22.5 -12 47.5 -12q34 0 59.5 18q25.5 18 43.5 38l0 -87q-19 -22 -43.5 -35.5q-24.5 -13.5 -59.5 -13.5q-33 0 -60 12q-27 12 -50.5 26q-23.5 14 -46 26q-22.5 12 -47.5 12q-34 0 -59.5 -18q-25.5 -18 -43.5 -38z" />
<glyph unicode="&#160;" horiz-adv-x="250" />
<glyph unicode="&#161;" horiz-adv-x="330" d="M165 532q64 0 64 -64q0 -64 -64 -64q-64 0 -64 64q0 64 64 64zt0 0zM212 -180h-94l5 476l84 0z" />
<glyph unicode="&#162;" horiz-adv-x="600" d="M304 -6q-99 14 -146 79.5q-47 65.5 -47 194.5q0 121 48 186q48 65 145 79l0 93h79v-90q55 -2 85 -12q30 -10 43 -16l0 -94q-23 16 -56 29q-33 13 -85 13q-86 0 -127.5 -44q-41.5 -44 -41.5 -144q0 -106 43.5 -152q43.5 -46 135.5 -46q47 0 83 14.5q36 14.5 57 31.5l0 -92q-7 -4 -18 -10q-11 -6 -27.5 -11q-16.5 -5 -39 -9q-22.5 -4 -52.5 -5l0 -109l-79 0z" />
<glyph unicode="&#163;" horiz-adv-x="600" d="M47 81h110v242h-110v71h110v84q0 35 9 75.5q9 40.5 33.5 75.5q24.5 35 69.5 58.5q45 23.5 117 23.5q48 0 85 -8.5q37 -8.5 62 -16.5l0 -85q-29 11 -61 20q-32 9 -78 9q-39 0 -66 -12q-27 -12 -44.5 -33q-17.5 -21 -25.5 -50q-8 -29 -8 -63v-78h183v-71h-183v-242h283v-81l-486 0z" />
<glyph unicode="&#164;" horiz-adv-x="600" d="M423 181q-26 -19 -57.5 -29.5q-31.5 -10.5 -66.5 -10.5q-72 0 -124 40l-65 -65l-44 45l64 64q-19 26 -29.5 58q-10.5 32 -10.5 67q0 35 10.5 66.5q10.5 31.5 29.5 57.5l-64 65l45 45l64 -65q26 20 57.5 30.5q31.5 10.5 66.5 10.5q35 0 67 -10.5q32 -10.5 58 -30.5l66 66l44 -44l-66 -67q19 -26 30 -57.5q11 -31.5 11 -66.5q0 -35 -10.5 -66.5q-10.5 -31.5 -30.5 -57.5l66 -65l-45 -45zM299 214q28 0 53 10.5q25 10.5 43.5 29q18.5 18.5 29 43.5q10.5 25 10.5 53q0 28 -10.5 53q-10.5 25 -29 43.5q-18.5 18.5 -43.5 29q-25 10.5 -53 10.5q-28 0 -52.5 -10.5q-24.5 -10.5 -43 -29q-18.5 -18.5 -29 -43.5q-10.5 -25 -10.5 -53q0 -28 10.5 -53q10.5 -25 29 -43.5q18.5 -18.5 43 -29t52.5 -10.5z" />
<glyph unicode="&#165;" horiz-adv-x="600" d="M86 337h133l-199 363h106l180 -338l173 338h101l-191 -363h135v-72h-173v-66h173v-72h-173v-127h-92v127h-173v72h173v66l-173 0z" />
<glyph unicode="&#166;" horiz-adv-x="300" d="M108 212h84v-392h-84zM108 753h84v-391l-84 0z" />
<glyph unicode="&#167;" horiz-adv-x="530" d="M240 -111q-39 0 -81.5 7q-42.5 7 -77.5 21l0 83q41 -20 76.5 -28q35.5 -8 73.5 -8q35 0 58 5q23 5 36.5 14q13.5 9 19 21.5q5.5 12.5 5.5 28.5q0 33 -31.5 56q-31.5 23 -87.5 48q-37 16 -68.5 32q-31.5 16 -54 35.5q-22.5 19.5 -35 45q-12.5 25.5 -12.5 60.5q0 42 25 76.5q25 34.5 68 63.5q-34 21 -51 48q-17 27 -17 64q0 71 52.5 110q52.5 39 148.5 39q48 0 85.5 -8.5q37.5 -8.5 60.5 -16.5l0 -81q-42 17 -75 24q-33 7 -68 7q-49 0 -79 -15.5q-30 -15.5 -30 -54.5q0 -15 5 -27q5 -12 17 -23q12 -11 31.5 -22q19.5 -11 48.5 -25q30 -14 63 -29q33 -15 60 -35q27 -20 45 -46.5q18 -26.5 18 -63.5q0 -39 -24.5 -76.5q-24.5 -37.5 -64.5 -68.5q30 -22 47.5 -48q17.5 -26 17.5 -64q0 -78 -56 -113.5q-56 -35.5 -149 -35.5zt0 0zM321 181q22 20 40.5 44.5q18.5 24.5 18.5 56.5q0 33 -21.5 56q-21.5 23 -67.5 46q-4 1 -14.5 6q-10.5 5 -22 10q-11.5 5 -22.5 10.5q-11 5.5 -17 8.5q-30 -21 -47.5 -44.5q-17.5 -23.5 -17.5 -50.5q0 -36 20.5 -58.5q20.5 -22.5 72.5 -47.5q5 -3 16 -8q11 -5 23.5 -11q12.5 -6 23 -11t15.5 -7z" />
<glyph unicode="&#168;" horiz-adv-x="410" d="M110 634q-55 0 -55 52q0 53 55 53q55 0 55 -53q0 -52 -55 -52zt0 0zM300 634q-55 0 -55 52q0 53 55 53q55 0 55 -53q0 -52 -55 -52z" />
<glyph unicode="&#169;" horiz-adv-x="830" d="M429 153q-99 0 -144 53.5q-45 53.5 -45 144.5q0 99 48.5 148.5q48.5 49.5 141.5 49.5q27 0 48.5 -3.5q21.5 -3.5 37.5 -8.5l0 -57q-18 7 -39 9.5q-21 2.5 -39 2.5q-130 0 -130 -140q0 -76 34 -108.5q34 -32.5 97 -32.5q18 0 38 3.5q20 3.5 39 11.5l0 -58q-17 -7 -38 -11q-21 -4 -49 -4zt0 0zM415 -11q-77 0 -142.5 27.5q-65.5 27.5 -114.5 76.5q-49 49 -76.5 114.5q-27.5 65.5 -27.5 142.5q0 76 27.5 142q27.5 66 76.5 115q49 49 114.5 76.5q65.5 27.5 142.5 27.5q76 0 142 -27.5q66 -27.5 115 -76.5q49 -49 76.5 -115q27.5 -66 27.5 -142q0 -76 -27.5 -142q-27.5 -66 -76.5 -114.5q-49 -48.5 -115 -76.5q-66 -28 -142 -28zt0 0zM415 49q63 0 118 23q55 23 95 63.5q40 40.5 63 95.5q23 55 23 119q0 64 -23 119q-23 55 -63 95.5q-40 40.5 -95 63.5q-55 23 -118 23q-63 0 -118 -23q-55 -23 -95 -63.5q-40 -40.5 -63 -95.5q-23 -55 -23 -119q0 -64 23 -119q23 -55 63 -95.5q40 -40.5 95 -63.5t118 -23z" />
<glyph unicode="&#170;" horiz-adv-x="370" d="M150 374q-57 0 -83.5 24.5q-26.5 24.5 -26.5 72.5q0 49 31 75.5q31 26.5 107 26.5h73v16q0 30 -16 44.5q-16 14.5 -61 14.5q-27 0 -55.5 -7.5q-28.5 -7.5 -48.5 -17.5l0 64q21 8 50 13.5q29 5.5 63 5.5q76 0 106.5 -29.5q30.5 -29.5 30.5 -92.5v-204h-60l-7 53q-12 -21 -36 -40q-24 -19 -67 -19zt0 0zM173 430q35 0 56.5 21.5q21.5 21.5 21.5 53.5v21h-64q-44 0 -60 -12q-16 -12 -16 -38q0 -23 14.5 -34.5t47.5 -11.5z" />
<glyph unicode="&#171;" horiz-adv-x="550" d="M183 484h86l-131 -207l131 -209h-89l-129 207zM393 484h86l-131 -207l131 -209h-89l-129 207z" />
<glyph unicode="&#172;" horiz-adv-x="600" d="M95 399h410v-211h-81v130l-329 0z" />
<glyph unicode="&#173;" horiz-adv-x="400" d="M45 315h310v-80l-310 0z" />
<glyph unicode="&#174;" horiz-adv-x="600" d="M50 517q0 55 18 100.5q18 45.5 51 78q33 32.5 79 50.5q46 18 102 18q56 0 102 -18q46 -18 79 -50.5q33 -32.5 51 -78q18 -45.5 18 -100.5q0 -55 -18 -100q-18 -45 -51 -77.5q-33 -32.5 -79 -50.5q-46 -18 -102 -18q-56 0 -102 18q-46 18 -79 50.5q-33 32.5 -51 77.5q-18 45 -18 100zt0 0zM96 518q0 -45 15 -82.5q15 -37.5 42 -64q27 -26.5 64.5 -41.5q37.5 -15 82.5 -15q45 0 82.5 15q37.5 15 64.5 41.5q27 26.5 42 64q15 37.5 15 82.5q0 45 -15 82.5q-15 37.5 -42 64.5q-27 27 -64.5 41.5q-37.5 14.5 -82.5 14.5q-45 0 -82.5 -14.5q-37.5 -14.5 -64.5 -41.5q-27 -27 -42 -64.5q-15 -37.5 -15 -82.5zt0 0zM203 659h105q15 0 31.5 -2.5q16.5 -2.5 30.5 -11.5q14 -9 23 -25.5q9 -16.5 9 -44.5q0 -30 -14.5 -50q-14.5 -20 -34.5 -26l68 -109h-59l-60 100h-46v-100h-53zM303 534q17 0 31 8q14 8 14 32q0 25 -13 32q-13 7 -33 7h-47l0 -79z" />
<glyph unicode="&#175;" horiz-adv-x="320" d="M31 709h258v-66l-258 0z" />
<glyph unicode="&#176;" horiz-adv-x="400" d="M201 389q-34 0 -63.5 12.5q-29.5 12.5 -51.5 34.5q-22 22 -34.5 51.5q-12.5 29.5 -12.5 62.5q0 33 12.5 62.5q12.5 29.5 34.5 51.5q22 22 51.5 34.5q29.5 12.5 63.5 12.5q33 0 62 -12.5q29 -12.5 51 -34.5q22 -22 34.5 -51.5q12.5 -29.5 12.5 -62.5q0 -33 -12.5 -62.5q-12.5 -29.5 -34.5 -51.5q-22 -22 -51 -34.5q-29 -12.5 -62 -12.5zt0 0zM201 459q38 0 64 26.5q26 26.5 26 64.5q0 38 -26 64.5q-26 26.5 -64 26.5q-38 0 -64.5 -26.5q-26.5 -26.5 -26.5 -64.5q0 -38 26.5 -64.5t64.5 -26.5z" />
<glyph unicode="&#177;" horiz-adv-x="600" d="M95 475h165v165h80v-165h165v-80h-165v-148h-80v148h-165zM95 161h410v-81l-410 0z" />
<glyph unicode="&#178;" horiz-adv-x="450" d="M55 448l123 84q32 22 55 40q23 18 38 34.5q15 16.5 22.5 32.5q7.5 16 7.5 33q0 35 -25 52q-25 17 -73 17q-35 0 -69 -6.5q-34 -6.5 -60 -20.5l0 68q34 13 68 18.5q34 5.5 72 5.5q78 0 122 -30q44 -30 44 -90q0 -26 -9.5 -49.5q-9.5 -23.5 -29 -46.5q-19.5 -23 -50 -46.5q-30.5 -23.5 -73.5 -50.5l-70 -47v-1h237v-65l-330 0z" />
<glyph unicode="&#179;" horiz-adv-x="450" d="M124 624h74q48 0 73.5 14q25.5 14 25.5 45q0 32 -25 45.5q-25 13.5 -79 13.5q-35 0 -70.5 -4.5q-35.5 -4.5 -60.5 -15.5l0 64q32 12 73.5 16q41.5 4 79.5 4q84 0 121.5 -30.5q37.5 -30.5 37.5 -77.5q0 -42 -28 -64q-28 -22 -76 -34l0 -2q34 -5 56 -14.5q22 -9.5 35 -23q13 -13.5 18.5 -29q5.5 -15.5 5.5 -31.5q0 -33 -14.5 -56.5q-14.5 -23.5 -39.5 -39q-25 -15.5 -59 -23q-34 -7.5 -72 -7.5q-33 0 -71.5 3.5q-38.5 3.5 -73.5 16.5l0 66q31 -13 66 -17.5q35 -4.5 70 -4.5q63 0 89 18.5q26 18.5 26 46.5q0 36 -25.5 51q-25.5 15 -76.5 15l-80 0z" />
<glyph unicode="&#180;" horiz-adv-x="300" d="M133 756h116l-125 -139l-73 0z" />
<glyph unicode="&#181;" horiz-adv-x="585" d="M81 526h88v-310q0 -42 6.5 -70q6.5 -28 20.5 -45q14 -17 36 -24q22 -7 52 -7q62 0 97 37q35 37 35 109v310h88v-526h-82l-6 89q-22 -45 -60.5 -72.5q-38.5 -27.5 -101.5 -27.5q-52 0 -85 18l0 -187l-88 0z" />
<glyph unicode="&#182;" horiz-adv-x="570" d="M219 367q-42 0 -73.5 12.5q-31.5 12.5 -52.5 34q-21 21.5 -31.5 51.5q-10.5 30 -10.5 65q0 55 20.5 88.5q20.5 33.5 51 51.5q30.5 18 64.5 24q34 6 61 6h227v-880h-75v812h-106v-812l-75 0z" />
<glyph unicode="&#183;" horiz-adv-x="320" d="M160 289q-64 0 -64 64q0 64 64 64q64 0 64 -64q0 -64 -64 -64z" />
<glyph unicode="&#184;" horiz-adv-x="250" d="M107 -217q-26 0 -43.5 4q-17.5 4 -32.5 11l7 49q15 -6 28.5 -9q13.5 -3 31.5 -3q50 0 50 40q0 20 -12.5 30.5q-12.5 10.5 -41.5 10.5q-8 0 -17 -0.5q-9 -0.5 -15 -1.5l18 93h53l-11 -51q97 0 97 -81q0 -42 -28.5 -67t-83.5 -25z" />
<glyph unicode="&#185;" horiz-adv-x="450" d="M225 717l-121 -64l-30 58l167 89h61v-420l-77 0z" />
<glyph unicode="&#186;" horiz-adv-x="370" d="M185 374q-82 0 -118.5 43q-36.5 43 -36.5 123q0 79 37 122.5q37 43.5 118 43.5q82 0 118.5 -43q36.5 -43 36.5 -123q0 -79 -37 -122.5q-37 -43.5 -118 -43.5zt0 0zM185 432q42 0 64 24q22 24 22 84q0 60 -22 84q-22 24 -64 24q-42 0 -64 -24q-22 -24 -22 -84q0 -60 22 -84t64 -24z" />
<glyph unicode="&#187;" horiz-adv-x="550" d="M202 275l-131 209h89l129 -207l-132 -209h-86zM412 275l-131 209h89l129 -207l-132 -209l-86 0z" />
<glyph unicode="&#188;" horiz-adv-x="950" d="M665 700h75l-465 -700h-75zM203 617l-121 -64l-30 58l167 89h61v-420h-77zM492 152l249 267h89v-264h57v-62h-57v-94h-72v94h-266zM758 352h-1l-185 -197l186 0z" />
<glyph unicode="&#189;" horiz-adv-x="950" d="M638 700h75l-465 -700h-75zM198 617l-121 -64l-30 58l167 89h61v-420h-77zM560 67l123 84q32 22 55 40q23 18 38 34.5q15 16.5 22.5 32.5q7.5 16 7.5 33q0 35 -25 52q-25 17 -73 17q-35 0 -69 -6.5q-34 -6.5 -60 -20.5l0 68q34 13 68 18.5q34 5.5 72 5.5q78 0 122 -30q44 -30 44 -90q0 -26 -9.5 -49.5q-9.5 -23.5 -29 -46.5q-19.5 -23 -50 -46.5q-30.5 -23.5 -73.5 -50.5l-70 -47v-1h237v-65l-330 0z" />
<glyph unicode="&#190;" horiz-adv-x="950" d="M692 700h75l-465 -700h-75zM502 152l249 267h89v-264h57v-62h-57v-94h-72v94h-266zM768 352h-1l-185 -197h186zM118 524h74q48 0 73.5 14q25.5 14 25.5 45q0 32 -25 45.5q-25 13.5 -79 13.5q-35 0 -70.5 -4.5q-35.5 -4.5 -60.5 -15.5l0 64q32 12 73.5 16q41.5 4 79.5 4q84 0 121.5 -30.5q37.5 -30.5 37.5 -77.5q0 -42 -28 -64q-28 -22 -76 -34l0 -2q34 -5 56 -14.5q22 -9.5 35 -23q13 -13.5 18.5 -29q5.5 -15.5 5.5 -31.5q0 -33 -14.5 -56.5q-14.5 -23.5 -39.5 -39q-25 -15.5 -59 -23q-34 -7.5 -72 -7.5q-33 0 -71.5 3.5q-38.5 3.5 -73.5 16.5l0 66q31 -13 66 -17.5q35 -4.5 70 -4.5q63 0 89 18.5q26 18.5 26 46.5q0 36 -25.5 51q-25.5 15 -76.5 15l-80 0z" />
<glyph unicode="&#191;" horiz-adv-x="480" d="M285 532q64 0 64 -64q0 -64 -64 -64q-64 0 -64 64q0 64 64 64zt0 0zM328 307q0 -45 -13.5 -75.5q-13.5 -30.5 -34.5 -52q-21 -21.5 -44.5 -38.5q-23.5 -17 -44.5 -36q-21 -19 -34.5 -43.5q-13.5 -24.5 -13.5 -61.5q0 -51 30.5 -79q30.5 -28 99.5 -28q50 0 88 13.5q38 13.5 69 33.5l0 -98q-36 -17 -78 -25q-42 -8 -86 -8q-114 0 -165 46.5q-51 46.5 -51 136.5q0 49 14.5 82q14.5 33 35.5 56.5q21 23.5 46.5 41q25.5 17.5 46.5 36q21 18.5 35.5 41.5q14.5 23 14.5 58z" />
<glyph unicode="&#192;" horiz-adv-x="640" d="M270 700h100l250 -700h-99l-63 185h-281l-63 -185h-94zM205 265h225l-112 331zM152 910h120l88 -140l-77 0z" />
<glyph unicode="&#193;" horiz-adv-x="640" d="M270 700h100l250 -700h-99l-63 185h-281l-63 -185h-94zM205 265h225l-112 331zM365 910h118l-133 -140l-75 0z" />
<glyph unicode="&#194;" horiz-adv-x="640" d="M270 700h100l250 -700h-99l-63 185h-281l-63 -185h-94zM205 265h225l-112 331zM270 910h100l115 -140h-78l-87 87l-89 -87l-76 0z" />
<glyph unicode="&#195;" horiz-adv-x="640" d="M270 700h100l250 -700h-99l-63 185h-281l-63 -185h-94zM205 265h225l-112 331zM158 788q3 45 29 70.5q26 25.5 63 25.5q19 0 36.5 -5.5q17.5 -5.5 39.5 -15.5q21 -9 35 -15q14 -6 27 -6q14 0 25 8.5q11 8.5 16 32.5l53 -12q-5 -46 -31 -70.5q-26 -24.5 -59 -24.5q-18 0 -34 3q-16 3 -45 17q-19 9 -32 16q-13 7 -27 7q-13 0 -25.5 -8.5q-12.5 -8.5 -17.5 -33.5z" />
<glyph unicode="&#196;" horiz-adv-x="640" d="M270 700h100l250 -700h-99l-63 185h-281l-63 -185h-94zM205 265h225l-112 331zM218 785q-57 0 -57 55q0 55 57 55q57 0 57 -55q0 -55 -57 -55zt0 0zM421 785q-57 0 -57 55q0 55 57 55q57 0 57 -55q0 -55 -57 -55z" />
<glyph unicode="&#197;" horiz-adv-x="640" d="M270 700h100l250 -700h-99l-63 185h-281l-63 -185h-94zM205 265h225l-112 331zM220 840q0 43 28 71q28 28 72 28q44 0 72 -28q28 -28 28 -71q0 -43 -28 -71q-28 -28 -72 -28q-44 0 -72 28q-28 28 -28 71zt0 0zM270 840q0 -23 13.5 -36.5q13.5 -13.5 36.5 -13.5q23 0 36.5 13.5q13.5 13.5 13.5 36.5q0 23 -13.5 36.5q-13.5 13.5 -36.5 13.5q-23 0 -36.5 -13.5t-13.5 -36.5z" />
<glyph unicode="&#198;" horiz-adv-x="935" d="M461 185h-242l-102 -185h-97l391 700h469v-83h-327v-218h287v-81h-287v-235h327v-83h-419zM461 265v357l-198 -357z" />
<glyph unicode="&#199;" horiz-adv-x="575" d="M335 -217q-25 0 -45 4q-20 4 -35 11l8 50q15 -6 30 -9q15 -3 33 -3q29 0 40.5 10q11.5 10 11.5 29q0 20 -12 30q-12 10 -44 10q-11 0 -19 -0.5q-8 -0.5 -13 -1.5l14 79q-63 6 -110.5 30q-47.5 24 -79.5 68q-32 44 -48 109.5q-16 65.5 -16 155.5q0 93 20 160.5q20 67.5 58.5 111q38.5 43.5 95.5 64q57 20.5 131 20.5q37 0 67 -4.5q30 -4.5 53 -9.5q26 -6 47 -14l0 -96q-29 17 -70 27.5q-41 10.5 -96 10.5q-51 0 -90.5 -14.5q-39.5 -14.5 -66 -46.5q-26.5 -32 -40 -83.5q-13.5 -51.5 -13.5 -125.5q0 -77 14 -130q14 -53 41 -86.5q27 -33.5 67 -48.5q40 -15 92 -15q57 0 100.5 16q43.5 16 69.5 31l0 -97q-22 -10 -49 -18q-23 -7 -54.5 -12.5q-31.5 -5.5 -68.5 -5.5l-7 -33q100 0 100 -81q0 -42 -29 -67t-87 -25z" />
<glyph unicode="&#200;" horiz-adv-x="575" d="M101 700h419v-83h-327v-218h287v-81h-287v-235h327v-83h-419zM147 910h120l88 -140l-77 0z" />
<glyph unicode="&#201;" horiz-adv-x="575" d="M101 700h419v-83h-327v-218h287v-81h-287v-235h327v-83h-419zM355 910h118l-133 -140l-75 0z" />
<glyph unicode="&#202;" horiz-adv-x="575" d="M101 700h419v-83h-327v-218h287v-81h-287v-235h327v-83h-419zM260 910h100l115 -140h-78l-87 87l-89 -87l-76 0z" />
<glyph unicode="&#203;" horiz-adv-x="575" d="M101 700h419v-83h-327v-218h287v-81h-287v-235h327v-83h-419zM208 785q-57 0 -57 55q0 55 57 55q57 0 57 -55q0 -55 -57 -55zt0 0zM411 785q-57 0 -57 55q0 55 57 55q57 0 57 -55q0 -55 -57 -55z" />
<glyph unicode="&#204;" horiz-adv-x="330" d="M119 700h92v-700h-92zM-4 910h120l88 -140l-77 0z" />
<glyph unicode="&#205;" horiz-adv-x="330" d="M119 700h92v-700h-92zM217 910h118l-133 -140l-75 0z" />
<glyph unicode="&#206;" horiz-adv-x="330" d="M119 700h92v-700h-92zM115 910h100l115 -140h-78l-87 87l-89 -87l-76 0z" />
<glyph unicode="&#207;" horiz-adv-x="330" d="M119 700h92v-700h-92zM63 785q-57 0 -57 55q0 55 57 55q57 0 57 -55q0 -55 -57 -55zt0 0zM266 785q-57 0 -57 55q0 55 57 55q57 0 57 -55q0 -55 -57 -55z" />
<glyph unicode="&#208;" horiz-adv-x="690" d="M17 391h94v304q29 2 61 5q27 2 61.5 4q34.5 2 69.5 2q90 0 154 -19q64 -19 104.5 -60.5q40.5 -41.5 59.5 -108q19 -66.5 19 -160.5q0 -190 -84 -277q-84 -87 -256 -87q-34 0 -67.5 1.5q-33.5 1.5 -60.5 3.5q-32 3 -61 6l0 314h-94zM544 358q0 75 -12.5 125q-12.5 50 -40.5 80q-28 30 -74 43q-46 13 -112 13q-22 0 -40.5 -1q-18.5 -1 -32.5 -2q-16 -1 -29 -2l0 -223h166v-72h-166v-233q12 -2 28 -3q14 -1 31.5 -1.5q17.5 -0.5 39.5 -0.5q63 0 108.5 14.5q45.5 14.5 75.5 47.5q30 33 44 86t14 129z" />
<glyph unicode="&#209;" horiz-adv-x="740" d="M101 700h103l286 -454q12 -20 22.5 -39q10.5 -19 18.5 -34q9 -18 17 -33l2 0q-1 15 -2 33q-1 15 -1 34q0 19 0 39v454h92v-700h-103l-286 454q-14 23 -24.5 42q-10.5 19 -18.5 33q-9 17 -15 31l-2 0q0 -14 1 -31q1 -14 1.5 -33q0.5 -19 0.5 -42v-454h-92zM208 788q3 45 29 70.5q26 25.5 63 25.5q19 0 36.5 -5.5q17.5 -5.5 39.5 -15.5q21 -9 35 -15q14 -6 27 -6q14 0 25 8.5q11 8.5 16 32.5l53 -12q-5 -46 -31 -70.5q-26 -24.5 -59 -24.5q-18 0 -34 3q-16 3 -45 17q-19 9 -32 16q-13 7 -27 7q-13 0 -25.5 -8.5q-12.5 -8.5 -17.5 -33.5z" />
<glyph unicode="&#210;" horiz-adv-x="710" d="M355 -11q-74 0 -130.5 21q-56.5 21 -95.5 65q-39 44 -59 112q-20 68 -20 163q0 95 20 163q20 68 59 112q39 44 95.5 65q56.5 21 130.5 21q76 0 133 -20q57 -20 95.5 -63.5q38.5 -43.5 57.5 -112q19 -68.5 19 -165.5q0 -95 -20 -163q-20 -68 -59 -112q-39 -44 -96 -65q-57 -21 -130 -21zt0 0zM355 73q51 0 90 14.5q39 14.5 65.5 47.5q26.5 33 40 86q13.5 53 13.5 129q0 76 -13.5 129q-13.5 53 -40 86q-26.5 33 -65.5 47.5q-39 14.5 -90 14.5q-50 0 -89 -15q-39 -15 -65.5 -48q-26.5 -33 -40.5 -85.5q-14 -52.5 -14 -128.5q0 -75 14 -127.5q14 -52.5 40.5 -86q26.5 -33.5 65.5 -48.5q39 -15 89 -15zt0 0zM193 910h120l88 -140l-77 0z" />
<glyph unicode="&#211;" horiz-adv-x="710" d="M355 -11q-74 0 -130.5 21q-56.5 21 -95.5 65q-39 44 -59 112q-20 68 -20 163q0 95 20 163q20 68 59 112q39 44 95.5 65q56.5 21 130.5 21q76 0 133 -20q57 -20 95.5 -63.5q38.5 -43.5 57.5 -112q19 -68.5 19 -165.5q0 -95 -20 -163q-20 -68 -59 -112q-39 -44 -96 -65q-57 -21 -130 -21zt0 0zM355 73q51 0 90 14.5q39 14.5 65.5 47.5q26.5 33 40 86q13.5 53 13.5 129q0 76 -13.5 129q-13.5 53 -40 86q-26.5 33 -65.5 47.5q-39 14.5 -90 14.5q-50 0 -89 -15q-39 -15 -65.5 -48q-26.5 -33 -40.5 -85.5q-14 -52.5 -14 -128.5q0 -75 14 -127.5q14 -52.5 40.5 -86q26.5 -33.5 65.5 -48.5q39 -15 89 -15zt0 0zM400 910h118l-133 -140l-75 0z" />
<glyph unicode="&#212;" horiz-adv-x="710" d="M355 -11q-74 0 -130.5 21q-56.5 21 -95.5 65q-39 44 -59 112q-20 68 -20 163q0 95 20 163q20 68 59 112q39 44 95.5 65q56.5 21 130.5 21q76 0 133 -20q57 -20 95.5 -63.5q38.5 -43.5 57.5 -112q19 -68.5 19 -165.5q0 -95 -20 -163q-20 -68 -59 -112q-39 -44 -96 -65q-57 -21 -130 -21zt0 0zM355 73q51 0 90 14.5q39 14.5 65.5 47.5q26.5 33 40 86q13.5 53 13.5 129q0 76 -13.5 129q-13.5 53 -40 86q-26.5 33 -65.5 47.5q-39 14.5 -90 14.5q-50 0 -89 -15q-39 -15 -65.5 -48q-26.5 -33 -40.5 -85.5q-14 -52.5 -14 -128.5q0 -75 14 -127.5q14 -52.5 40.5 -86q26.5 -33.5 65.5 -48.5q39 -15 89 -15zt0 0zM305 910h100l115 -140h-78l-87 87l-89 -87l-76 0z" />
<glyph unicode="&#213;" horiz-adv-x="710" d="M355 -11q-74 0 -130.5 21q-56.5 21 -95.5 65q-39 44 -59 112q-20 68 -20 163q0 95 20 163q20 68 59 112q39 44 95.5 65q56.5 21 130.5 21q76 0 133 -20q57 -20 95.5 -63.5q38.5 -43.5 57.5 -112q19 -68.5 19 -165.5q0 -95 -20 -163q-20 -68 -59 -112q-39 -44 -96 -65q-57 -21 -130 -21zt0 0zM355 73q51 0 90 14.5q39 14.5 65.5 47.5q26.5 33 40 86q13.5 53 13.5 129q0 76 -13.5 129q-13.5 53 -40 86q-26.5 33 -65.5 47.5q-39 14.5 -90 14.5q-50 0 -89 -15q-39 -15 -65.5 -48q-26.5 -33 -40.5 -85.5q-14 -52.5 -14 -128.5q0 -75 14 -127.5q14 -52.5 40.5 -86q26.5 -33.5 65.5 -48.5q39 -15 89 -15zt0 0zM193 788q3 45 29 70.5q26 25.5 63 25.5q19 0 36.5 -5.5q17.5 -5.5 39.5 -15.5q21 -9 35 -15q14 -6 27 -6q14 0 25 8.5q11 8.5 16 32.5l53 -12q-5 -46 -31 -70.5q-26 -24.5 -59 -24.5q-18 0 -34 3q-16 3 -45 17q-19 9 -32 16q-13 7 -27 7q-13 0 -25.5 -8.5q-12.5 -8.5 -17.5 -33.5z" />
<glyph unicode="&#214;" horiz-adv-x="710" d="M355 -11q-74 0 -130.5 21q-56.5 21 -95.5 65q-39 44 -59 112q-20 68 -20 163q0 95 20 163q20 68 59 112q39 44 95.5 65q56.5 21 130.5 21q76 0 133 -20q57 -20 95.5 -63.5q38.5 -43.5 57.5 -112q19 -68.5 19 -165.5q0 -95 -20 -163q-20 -68 -59 -112q-39 -44 -96 -65q-57 -21 -130 -21zt0 0zM355 73q51 0 90 14.5q39 14.5 65.5 47.5q26.5 33 40 86q13.5 53 13.5 129q0 76 -13.5 129q-13.5 53 -40 86q-26.5 33 -65.5 47.5q-39 14.5 -90 14.5q-50 0 -89 -15q-39 -15 -65.5 -48q-26.5 -33 -40.5 -85.5q-14 -52.5 -14 -128.5q0 -75 14 -127.5q14 -52.5 40.5 -86q26.5 -33.5 65.5 -48.5q39 -15 89 -15zt0 0zM253 785q-57 0 -57 55q0 55 57 55q57 0 57 -55q0 -55 -57 -55zt0 0zM456 785q-57 0 -57 55q0 55 57 55q57 0 57 -55q0 -55 -57 -55z" />
<glyph unicode="&#215;" horiz-adv-x="600" d="M114 228l132 132l-132 132l54 54l132 -132l132 132l54 -54l-132 -132l132 -132l-54 -54l-132 132l-132 -132z" />
<glyph unicode="&#216;" horiz-adv-x="710" d="M355 -11q-56 0 -102 11.5q-46 11.5 -82 36.5l-51 -73l-50 36l55 78q-37 45 -56 111.5q-19 66.5 -19 160.5q0 95 20 163q20 68 59 112q39 44 95.5 65q56.5 21 130.5 21q57 0 103 -11q46 -11 82 -35l50 71l50 -36l-54 -76q37 -44 55.5 -111q18.5 -67 18.5 -163q0 -95 -20 -163q-20 -68 -59 -112q-39 -44 -96 -65q-57 -21 -130 -21zt0 0zM355 73q51 0 90 14.5q39 14.5 65.5 47.5q26.5 33 40 86q13.5 53 13.5 129q0 63 -9.5 110q-9.5 47 -27.5 80l-302 -428q48 -39 130 -39zt0 0zM146 350q0 -122 38 -189l302 428q-50 38 -131 38q-50 0 -89 -15q-39 -15 -65.5 -48q-26.5 -33 -40.5 -85.5t-14 -128.5z" />
<glyph unicode="&#217;" horiz-adv-x="670" d="M335 -11q-66 0 -114 15.5q-48 15.5 -79.5 49q-31.5 33.5 -46.5 87q-15 53.5 -15 129.5v430h93v-426q0 -57 9 -95q9 -38 28.5 -61.5q19.5 -23.5 50 -33q30.5 -9.5 74.5 -9.5q44 0 75 9.5q31 9.5 50.5 32.5q19.5 23 28 61q8.5 38 8.5 96v426h93v-430q0 -75 -15.5 -128.5q-15.5 -53.5 -47 -87.5q-31.5 -34 -79.5 -49.5q-48 -15.5 -113 -15.5zt0 0zM173 910h120l88 -140l-77 0z" />
<glyph unicode="&#218;" horiz-adv-x="670" d="M335 -11q-66 0 -114 15.5q-48 15.5 -79.5 49q-31.5 33.5 -46.5 87q-15 53.5 -15 129.5v430h93v-426q0 -57 9 -95q9 -38 28.5 -61.5q19.5 -23.5 50 -33q30.5 -9.5 74.5 -9.5q44 0 75 9.5q31 9.5 50.5 32.5q19.5 23 28 61q8.5 38 8.5 96v426h93v-430q0 -75 -15.5 -128.5q-15.5 -53.5 -47 -87.5q-31.5 -34 -79.5 -49.5q-48 -15.5 -113 -15.5zt0 0zM380 910h118l-133 -140l-75 0z" />
<glyph unicode="&#219;" horiz-adv-x="670" d="M335 -11q-66 0 -114 15.5q-48 15.5 -79.5 49q-31.5 33.5 -46.5 87q-15 53.5 -15 129.5v430h93v-426q0 -57 9 -95q9 -38 28.5 -61.5q19.5 -23.5 50 -33q30.5 -9.5 74.5 -9.5q44 0 75 9.5q31 9.5 50.5 32.5q19.5 23 28 61q8.5 38 8.5 96v426h93v-430q0 -75 -15.5 -128.5q-15.5 -53.5 -47 -87.5q-31.5 -34 -79.5 -49.5q-48 -15.5 -113 -15.5zt0 0zM285 910h100l115 -140h-78l-87 87l-89 -87l-76 0z" />
<glyph unicode="&#220;" horiz-adv-x="670" d="M335 -11q-66 0 -114 15.5q-48 15.5 -79.5 49q-31.5 33.5 -46.5 87q-15 53.5 -15 129.5v430h93v-426q0 -57 9 -95q9 -38 28.5 -61.5q19.5 -23.5 50 -33q30.5 -9.5 74.5 -9.5q44 0 75 9.5q31 9.5 50.5 32.5q19.5 23 28 61q8.5 38 8.5 96v426h93v-430q0 -75 -15.5 -128.5q-15.5 -53.5 -47 -87.5q-31.5 -34 -79.5 -49.5q-48 -15.5 -113 -15.5zt0 0zM233 785q-57 0 -57 55q0 55 57 55q57 0 57 -55q0 -55 -57 -55zt0 0zM436 785q-57 0 -57 55q0 55 57 55q57 0 57 -55q0 -55 -57 -55z" />
<glyph unicode="&#221;" horiz-adv-x="610" d="M264 271l-244 429h106l185 -332l178 332h101l-234 -429v-271h-92zM350 910h118l-133 -140l-75 0z" />
<glyph unicode="&#222;" horiz-adv-x="620" d="M101 700h92v-105q46 3 104 3q75 0 127 -14q52 -14 84.5 -43q32.5 -29 47 -73.5q14.5 -44.5 14.5 -105.5q0 -122 -65.5 -184q-65.5 -62 -207.5 -62q-45 0 -72 2q-27 2 -32 3l0 -121h-92zM474 362q0 40 -8.5 68.5q-8.5 28.5 -29 46.5q-20.5 18 -54.5 26.5q-34 8.5 -85 8.5q-45 0 -72 -2q-27 -2 -32 -3l0 -300q5 0 32 -2q27 -2 72 -2q97 0 137 37.5t40 121.5z" />
<glyph unicode="&#223;" horiz-adv-x="615" d="M81 515q0 123 58 186q58 63 173 63q105 0 158.5 -51q53.5 -51 53.5 -141q0 -61 -26 -103q-26 -42 -77 -62l0 -3q71 -9 104.5 -59q33.5 -50 33.5 -131q0 -117 -53.5 -171q-53.5 -54 -166.5 -54q-32 0 -56.5 4q-24.5 4 -42.5 9l0 81q16 -5 38 -8.5q22 -3.5 54 -3.5q69 0 101.5 34.5q32.5 34.5 32.5 112.5q0 75 -32.5 109q-32.5 34 -99.5 34h-64v75h54q49 0 78 32q29 32 29 95q0 58 -31 88.5q-31 30.5 -92 30.5q-71 0 -104.5 -39.5q-33.5 -39.5 -33.5 -127.5v-515l-89 0z" />
<glyph unicode="&#224;" horiz-adv-x="535" d="M215 -11q-81 0 -122.5 41q-41.5 41 -41.5 117q0 40 10.5 69.5q10.5 29.5 35.5 49.5q25 20 65 30q40 10 99 10h110v47q0 56 -26 79.5q-26 23.5 -96 23.5q-47 0 -88 -13q-41 -13 -69 -32l0 92q29 14 74 24q45 10 95 10q54 0 92 -10.5q38 -10.5 61.5 -33q23.5 -22.5 34 -57.5q10.5 -35 10.5 -85v-351h-79l-5 90q-18 -42 -57 -71.5q-39 -29.5 -103 -29.5zt0 0zM238 67q62 0 97.5 36.5q35.5 36.5 35.5 104.5v36h-104q-72 0 -99 -22.5q-27 -22.5 -27 -70.5q0 -42 23 -63q23 -21 74 -21zt0 0zM120 756h118l80 -139l-75 0z" />
<glyph unicode="&#225;" horiz-adv-x="535" d="M215 -11q-81 0 -122.5 41q-41.5 41 -41.5 117q0 40 10.5 69.5q10.5 29.5 35.5 49.5q25 20 65 30q40 10 99 10h110v47q0 56 -26 79.5q-26 23.5 -96 23.5q-47 0 -88 -13q-41 -13 -69 -32l0 92q29 14 74 24q45 10 95 10q54 0 92 -10.5q38 -10.5 61.5 -33q23.5 -22.5 34 -57.5q10.5 -35 10.5 -85v-351h-79l-5 90q-18 -42 -57 -71.5q-39 -29.5 -103 -29.5zt0 0zM238 67q62 0 97.5 36.5q35.5 36.5 35.5 104.5v36h-104q-72 0 -99 -22.5q-27 -22.5 -27 -70.5q0 -42 23 -63q23 -21 74 -21zt0 0zM312 756h116l-125 -139l-73 0z" />
<glyph unicode="&#226;" horiz-adv-x="535" d="M215 -11q-81 0 -122.5 41q-41.5 41 -41.5 117q0 40 10.5 69.5q10.5 29.5 35.5 49.5q25 20 65 30q40 10 99 10h110v47q0 56 -26 79.5q-26 23.5 -96 23.5q-47 0 -88 -13q-41 -13 -69 -32l0 92q29 14 74 24q45 10 95 10q54 0 92 -10.5q38 -10.5 61.5 -33q23.5 -22.5 34 -57.5q10.5 -35 10.5 -85v-351h-79l-5 90q-18 -42 -57 -71.5q-39 -29.5 -103 -29.5zt0 0zM238 67q62 0 97.5 36.5q35.5 36.5 35.5 104.5v36h-104q-72 0 -99 -22.5q-27 -22.5 -27 -70.5q0 -42 23 -63q23 -21 74 -21zt0 0zM225 756h96l111 -139h-76l-83 88l-85 -88l-74 0z" />
<glyph unicode="&#227;" horiz-adv-x="535" d="M215 -11q-81 0 -122.5 41q-41.5 41 -41.5 117q0 40 10.5 69.5q10.5 29.5 35.5 49.5q25 20 65 30q40 10 99 10h110v47q0 56 -26 79.5q-26 23.5 -96 23.5q-47 0 -88 -13q-41 -13 -69 -32l0 92q29 14 74 24q45 10 95 10q54 0 92 -10.5q38 -10.5 61.5 -33q23.5 -22.5 34 -57.5q10.5 -35 10.5 -85v-351h-79l-5 90q-18 -42 -57 -71.5q-39 -29.5 -103 -29.5zt0 0zM238 67q62 0 97.5 36.5q35.5 36.5 35.5 104.5v36h-104q-72 0 -99 -22.5q-27 -22.5 -27 -70.5q0 -42 23 -63q23 -21 74 -21zt0 0zM113 634q3 46 26 71q23 25 60 25q20 0 36.5 -5.5q16.5 -5.5 38.5 -15.5q21 -9 34 -15.5q13 -6.5 27 -6.5q14 0 22.5 9q8.5 9 13.5 33l52 -12q-5 -46 -28.5 -70.5q-23.5 -24.5 -56.5 -24.5q-18 0 -33 3.5q-15 3.5 -44 17.5q-19 9 -31 15.5q-12 6.5 -26 6.5q-13 0 -23 -8.5q-10 -8.5 -15 -33.5z" />
<glyph unicode="&#228;" horiz-adv-x="535" d="M215 -11q-81 0 -122.5 41q-41.5 41 -41.5 117q0 40 10.5 69.5q10.5 29.5 35.5 49.5q25 20 65 30q40 10 99 10h110v47q0 56 -26 79.5q-26 23.5 -96 23.5q-47 0 -88 -13q-41 -13 -69 -32l0 92q29 14 74 24q45 10 95 10q54 0 92 -10.5q38 -10.5 61.5 -33q23.5 -22.5 34 -57.5q10.5 -35 10.5 -85v-351h-79l-5 90q-18 -42 -57 -71.5q-39 -29.5 -103 -29.5zt0 0zM238 67q62 0 97.5 36.5q35.5 36.5 35.5 104.5v36h-104q-72 0 -99 -22.5q-27 -22.5 -27 -70.5q0 -42 23 -63q23 -21 74 -21zt0 0zM178 634q-55 0 -55 52q0 53 55 53q55 0 55 -53q0 -52 -55 -52zt0 0zM368 634q-55 0 -55 52q0 53 55 53q55 0 55 -53q0 -52 -55 -52z" />
<glyph unicode="&#229;" horiz-adv-x="535" d="M215 -11q-81 0 -122.5 41q-41.5 41 -41.5 117q0 40 10.5 69.5q10.5 29.5 35.5 49.5q25 20 65 30q40 10 99 10h110v47q0 56 -26 79.5q-26 23.5 -96 23.5q-47 0 -88 -13q-41 -13 -69 -32l0 92q29 14 74 24q45 10 95 10q54 0 92 -10.5q38 -10.5 61.5 -33q23.5 -22.5 34 -57.5q10.5 -35 10.5 -85v-351h-79l-5 90q-18 -42 -57 -71.5q-39 -29.5 -103 -29.5zt0 0zM238 67q62 0 97.5 36.5q35.5 36.5 35.5 104.5v36h-104q-72 0 -99 -22.5q-27 -22.5 -27 -70.5q0 -42 23 -63q23 -21 74 -21zt0 0zM177 686q0 44 26.5 70.5q26.5 26.5 71.5 26.5q45 0 71.5 -26.5q26.5 -26.5 26.5 -70.5q0 -43 -26.5 -70q-26.5 -27 -71.5 -27q-45 0 -71.5 27q-26.5 27 -26.5 70zt0 0zM227 686q0 -23 12.5 -35.5q12.5 -12.5 35.5 -12.5q22 0 35 13q13 13 13 35q0 22 -13 35q-13 13 -35 13q-22 0 -35 -13t-13 -35z" />
<glyph unicode="&#230;" horiz-adv-x="860" d="M614 -11q-144 0 -198 100q-30 -51 -79 -75.5q-49 -24.5 -114 -24.5q-88 0 -130 41q-42 41 -42 117q0 40 10.5 69.5q10.5 29.5 35.5 49.5q25 20 65.5 30q40.5 10 99.5 10h113v47q0 56 -26.5 79.5q-26.5 23.5 -98.5 23.5q-48 0 -89 -13q-41 -13 -69 -32l0 92q29 14 74 24q45 10 96 10q68 0 110 -17.5q42 -17.5 62 -55.5q57 73 163 73q109 0 160.5 -60.5q51.5 -60.5 51.5 -195.5v-41h-347q2 -89 41 -131q39 -42 117 -42q48 0 88.5 13q40.5 13 67.5 36l0 -88q-23 -16 -63 -27.5q-40 -11.5 -99 -11.5zt0 0zM240 67q63 0 99 36.5q36 36.5 36 104.5v36h-107q-73 0 -100 -22.5q-27 -22.5 -27 -70.5q0 -42 23 -63q23 -21 76 -21zt0 0zM597 462q-63 0 -97.5 -37q-34.5 -37 -37.5 -121l259 0q0 75 -27 116.5t-97 41.5z" />
<glyph unicode="&#231;" horiz-adv-x="475" d="M275 -217q-26 0 -43.5 4q-17.5 4 -32.5 11l7 49q15 -6 28.5 -9q13.5 -3 31.5 -3q50 0 50 40q0 20 -12.5 30.5q-12.5 10.5 -41.5 10.5q-8 0 -17 -0.5q-9 -0.5 -15 -1.5l15 79q-99 12 -146.5 77.5q-47.5 65.5 -47.5 197.5q0 139 62 204q62 65 180 65q54 0 89 -9.5q35 -9.5 49 -15.5l0 -95q-23 16 -56 27.5q-33 11.5 -75 11.5q-78 0 -118.5 -44q-40.5 -44 -40.5 -144q0 -106 42 -152q42 -46 127 -46q37 0 73 12.5q36 12.5 57 29.5l0 -91q-14 -8 -49.5 -20q-35.5 -12 -90.5 -12h-3l-7 -33q97 0 97 -81q0 -42 -28.5 -67t-83.5 -25z" />
<glyph unicode="&#232;" horiz-adv-x="550" d="M297 -11q-127 0 -186.5 66.5q-59.5 66.5 -59.5 210.5q0 139 61 205q61 66 168 66q114 0 166.5 -61q52.5 -61 52.5 -195v-41h-360q2 -89 41 -131q39 -42 123 -42q50 0 93 16.5q43 16.5 70 39.5l0 -88q-25 -17 -66.5 -31.5q-41.5 -14.5 -102.5 -14.5zt0 0zM280 462q-68 0 -103.5 -37q-35.5 -37 -37.5 -121l272 0q0 37 -6.5 66.5q-6.5 29.5 -21.5 50q-15 20.5 -40 31q-25 10.5 -63 10.5zt0 0zM125 756h118l80 -139l-75 0z" />
<glyph unicode="&#233;" horiz-adv-x="550" d="M297 -11q-127 0 -186.5 66.5q-59.5 66.5 -59.5 210.5q0 139 61 205q61 66 168 66q114 0 166.5 -61q52.5 -61 52.5 -195v-41h-360q2 -89 41 -131q39 -42 123 -42q50 0 93 16.5q43 16.5 70 39.5l0 -88q-25 -17 -66.5 -31.5q-41.5 -14.5 -102.5 -14.5zt0 0zM280 462q-68 0 -103.5 -37q-35.5 -37 -37.5 -121l272 0q0 37 -6.5 66.5q-6.5 29.5 -21.5 50q-15 20.5 -40 31q-25 10.5 -63 10.5zt0 0zM317 756h116l-125 -139l-73 0z" />
<glyph unicode="&#234;" horiz-adv-x="550" d="M297 -11q-127 0 -186.5 66.5q-59.5 66.5 -59.5 210.5q0 139 61 205q61 66 168 66q114 0 166.5 -61q52.5 -61 52.5 -195v-41h-360q2 -89 41 -131q39 -42 123 -42q50 0 93 16.5q43 16.5 70 39.5l0 -88q-25 -17 -66.5 -31.5q-41.5 -14.5 -102.5 -14.5zt0 0zM280 462q-68 0 -103.5 -37q-35.5 -37 -37.5 -121l272 0q0 37 -6.5 66.5q-6.5 29.5 -21.5 50q-15 20.5 -40 31q-25 10.5 -63 10.5zt0 0zM230 756h96l111 -139h-76l-83 88l-85 -88l-74 0z" />
<glyph unicode="&#235;" horiz-adv-x="550" d="M297 -11q-127 0 -186.5 66.5q-59.5 66.5 -59.5 210.5q0 139 61 205q61 66 168 66q114 0 166.5 -61q52.5 -61 52.5 -195v-41h-360q2 -89 41 -131q39 -42 123 -42q50 0 93 16.5q43 16.5 70 39.5l0 -88q-25 -17 -66.5 -31.5q-41.5 -14.5 -102.5 -14.5zt0 0zM280 462q-68 0 -103.5 -37q-35.5 -37 -37.5 -121l272 0q0 37 -6.5 66.5q-6.5 29.5 -21.5 50q-15 20.5 -40 31q-25 10.5 -63 10.5zt0 0zM183 634q-55 0 -55 52q0 53 55 53q55 0 55 -53q0 -52 -55 -52zt0 0zM373 634q-55 0 -55 52q0 53 55 53q55 0 55 -53q0 -52 -55 -52z" />
<glyph unicode="&#236;" horiz-adv-x="290" d="M101 526h88v-526h-88zM-15 756h118l80 -139l-75 0z" />
<glyph unicode="&#237;" horiz-adv-x="290" d="M101 526h88v-526h-88zM190 756h116l-125 -139l-73 0z" />
<glyph unicode="&#238;" horiz-adv-x="290" d="M101 526h88v-526h-88zM97 756h96l111 -139h-76l-83 88l-85 -88l-74 0z" />
<glyph unicode="&#239;" horiz-adv-x="290" d="M101 526h88v-526h-88zM50 634q-55 0 -55 52q0 53 55 53q55 0 55 -53q0 -52 -55 -52zt0 0zM240 634q-55 0 -55 52q0 53 55 53q55 0 55 -53q0 -52 -55 -52z" />
<glyph unicode="&#240;" horiz-adv-x="585" d="M156 615l90 48q-60 33 -128 48l31 58q96 -24 168 -68l130 70l22 -45l-106 -57q89 -70 127.5 -171.5q38.5 -101.5 38.5 -226.5q0 -73 -18 -126q-18 -53 -50 -87.5q-32 -34.5 -76.5 -51.5q-44.5 -17 -97.5 -17q-119 0 -177.5 70q-58.5 70 -58.5 196q0 127 57 193q57 66 163 66q17 0 36.5 -2.5q19.5 -2.5 39 -9.5q19.5 -7 38.5 -21q19 -14 35 -36l3 2q-15 57 -48.5 103.5q-33.5 46.5 -80.5 81.5l-115 -62zM290 69q35 0 62.5 10q27.5 10 47 32.5q19.5 22.5 29.5 58q10 35.5 10 85.5q0 96 -35.5 137.5q-35.5 41.5 -113.5 41.5q-35 0 -63 -9q-28 -9 -47 -30q-19 -21 -29 -55.5q-10 -34.5 -10 -84.5q0 -51 10.5 -86.5q10.5 -35.5 30 -57.5q19.5 -22 47 -32t61.5 -10z" />
<glyph unicode="&#241;" horiz-adv-x="585" d="M81 526h82l6 -89q22 48 61 74q39 26 102 26q89 0 133 -46q44 -46 44 -152v-339h-88v310q0 42 -6.5 70q-6.5 28 -21 45q-14.5 17 -37 24q-22.5 7 -54.5 7q-63 0 -98 -37q-35 -37 -35 -109v-310h-88zM138 634q3 46 26 71q23 25 60 25q20 0 36.5 -5.5q16.5 -5.5 38.5 -15.5q21 -9 34 -15.5q13 -6.5 27 -6.5q14 0 22.5 9q8.5 9 13.5 33l52 -12q-5 -46 -28.5 -70.5q-23.5 -24.5 -56.5 -24.5q-18 0 -33 3.5q-15 3.5 -44 17.5q-19 9 -31 15.5q-12 6.5 -26 6.5q-13 0 -23 -8.5q-10 -8.5 -15 -33.5z" />
<glyph unicode="&#242;" horiz-adv-x="570" d="M285 -11q-115 0 -174.5 65q-59.5 65 -59.5 209q0 140 62 207q62 67 172 67q117 0 175.5 -63.5q58.5 -63.5 58.5 -210.5q0 -144 -60.5 -209q-60.5 -65 -173.5 -65zt0 0zM285 70q36 0 63 10q27 10 45 32.5q18 22.5 27 59.5q9 37 9 91q0 54 -9 91q-9 37 -27 59.5q-18 22.5 -45 32.5q-27 10 -63 10q-69 0 -106.5 -43.5q-37.5 -43.5 -37.5 -149.5q0 -54 9 -91q9 -37 27 -59.5q18 -22.5 45 -32.5q27 -10 63 -10zt0 0zM132 756h118l80 -139l-75 0z" />
<glyph unicode="&#243;" horiz-adv-x="570" d="M285 -11q-115 0 -174.5 65q-59.5 65 -59.5 209q0 140 62 207q62 67 172 67q117 0 175.5 -63.5q58.5 -63.5 58.5 -210.5q0 -144 -60.5 -209q-60.5 -65 -173.5 -65zt0 0zM285 70q36 0 63 10q27 10 45 32.5q18 22.5 27 59.5q9 37 9 91q0 54 -9 91q-9 37 -27 59.5q-18 22.5 -45 32.5q-27 10 -63 10q-69 0 -106.5 -43.5q-37.5 -43.5 -37.5 -149.5q0 -54 9 -91q9 -37 27 -59.5q18 -22.5 45 -32.5q27 -10 63 -10zt0 0zM323 756h116l-125 -139l-73 0z" />
<glyph unicode="&#244;" horiz-adv-x="570" d="M285 -11q-115 0 -174.5 65q-59.5 65 -59.5 209q0 140 62 207q62 67 172 67q117 0 175.5 -63.5q58.5 -63.5 58.5 -210.5q0 -144 -60.5 -209q-60.5 -65 -173.5 -65zt0 0zM285 70q36 0 63 10q27 10 45 32.5q18 22.5 27 59.5q9 37 9 91q0 54 -9 91q-9 37 -27 59.5q-18 22.5 -45 32.5q-27 10 -63 10q-69 0 -106.5 -43.5q-37.5 -43.5 -37.5 -149.5q0 -54 9 -91q9 -37 27 -59.5q18 -22.5 45 -32.5q27 -10 63 -10zt0 0zM237 756h96l111 -139h-76l-83 88l-85 -88l-74 0z" />
<glyph unicode="&#245;" horiz-adv-x="570" d="M285 -11q-115 0 -174.5 65q-59.5 65 -59.5 209q0 140 62 207q62 67 172 67q117 0 175.5 -63.5q58.5 -63.5 58.5 -210.5q0 -144 -60.5 -209q-60.5 -65 -173.5 -65zt0 0zM285 70q36 0 63 10q27 10 45 32.5q18 22.5 27 59.5q9 37 9 91q0 54 -9 91q-9 37 -27 59.5q-18 22.5 -45 32.5q-27 10 -63 10q-69 0 -106.5 -43.5q-37.5 -43.5 -37.5 -149.5q0 -54 9 -91q9 -37 27 -59.5q18 -22.5 45 -32.5q27 -10 63 -10zt0 0zM130 634q3 46 26 71q23 25 60 25q20 0 36.5 -5.5q16.5 -5.5 38.5 -15.5q21 -9 34 -15.5q13 -6.5 27 -6.5q14 0 22.5 9q8.5 9 13.5 33l52 -12q-5 -46 -28.5 -70.5q-23.5 -24.5 -56.5 -24.5q-18 0 -33 3.5q-15 3.5 -44 17.5q-19 9 -31 15.5q-12 6.5 -26 6.5q-13 0 -23 -8.5q-10 -8.5 -15 -33.5z" />
<glyph unicode="&#246;" horiz-adv-x="570" d="M285 -11q-115 0 -174.5 65q-59.5 65 -59.5 209q0 140 62 207q62 67 172 67q117 0 175.5 -63.5q58.5 -63.5 58.5 -210.5q0 -144 -60.5 -209q-60.5 -65 -173.5 -65zt0 0zM285 70q36 0 63 10q27 10 45 32.5q18 22.5 27 59.5q9 37 9 91q0 54 -9 91q-9 37 -27 59.5q-18 22.5 -45 32.5q-27 10 -63 10q-69 0 -106.5 -43.5q-37.5 -43.5 -37.5 -149.5q0 -54 9 -91q9 -37 27 -59.5q18 -22.5 45 -32.5q27 -10 63 -10zt0 0zM190 634q-55 0 -55 52q0 53 55 53q55 0 55 -53q0 -52 -55 -52zt0 0zM380 634q-55 0 -55 52q0 53 55 53q55 0 55 -53q0 -52 -55 -52z" />
<glyph unicode="&#247;" horiz-adv-x="600" d="M95 399h410v-81h-410zM300 115q-64 0 -64 64q0 64 64 64q64 0 64 -64q0 -64 -64 -64zt0 0zM300 474q-64 0 -64 64q0 64 64 64q64 0 64 -64q0 -64 -64 -64z" />
<glyph unicode="&#248;" horiz-adv-x="570" d="M285 -11q-82 0 -135 32l-37 -53l-46 32l40 58q-28 33 -42 83.5q-14 50.5 -14 121.5q0 140 62 207q62 67 172 67q83 0 135 -31l37 52l46 -32l-40 -57q28 -33 42 -83.5q14 -50.5 14 -122.5q0 -144 -60.5 -209q-60.5 -65 -173.5 -65zt0 0zM285 70q36 0 63 10q27 10 45 32.5q18 22.5 27 59.5q9 37 9 91q0 82 -21 127l-209 -299q31 -21 86 -21zt0 0zM141 263q0 -82 21 -127l208 298q-32 22 -85 22q-69 0 -106.5 -43.5t-37.5 -149.5z" />
<glyph unicode="&#249;" horiz-adv-x="580" d="M249 -11q-85 0 -129 46q-44 46 -44 152v339h88v-310q0 -42 6.5 -70q6.5 -28 20.5 -45q14 -17 36 -24q22 -7 52 -7q62 0 97 37q35 37 35 109v310h88v-526h-82l-6 89q-22 -45 -60.5 -72.5q-38.5 -27.5 -101.5 -27.5zt0 0zM134 756h118l80 -139l-75 0z" />
<glyph unicode="&#250;" horiz-adv-x="580" d="M249 -11q-85 0 -129 46q-44 46 -44 152v339h88v-310q0 -42 6.5 -70q6.5 -28 20.5 -45q14 -17 36 -24q22 -7 52 -7q62 0 97 37q35 37 35 109v310h88v-526h-82l-6 89q-22 -45 -60.5 -72.5q-38.5 -27.5 -101.5 -27.5zt0 0zM325 756h116l-125 -139l-73 0z" />
<glyph unicode="&#251;" horiz-adv-x="580" d="M249 -11q-85 0 -129 46q-44 46 -44 152v339h88v-310q0 -42 6.5 -70q6.5 -28 20.5 -45q14 -17 36 -24q22 -7 52 -7q62 0 97 37q35 37 35 109v310h88v-526h-82l-6 89q-22 -45 -60.5 -72.5q-38.5 -27.5 -101.5 -27.5zt0 0zM239 756h96l111 -139h-76l-83 88l-85 -88l-74 0z" />
<glyph unicode="&#252;" horiz-adv-x="580" d="M249 -11q-85 0 -129 46q-44 46 -44 152v339h88v-310q0 -42 6.5 -70q6.5 -28 20.5 -45q14 -17 36 -24q22 -7 52 -7q62 0 97 37q35 37 35 109v310h88v-526h-82l-6 89q-22 -45 -60.5 -72.5q-38.5 -27.5 -101.5 -27.5zt0 0zM192 634q-55 0 -55 52q0 53 55 53q55 0 55 -53q0 -52 -55 -52zt0 0zM382 634q-55 0 -55 52q0 53 55 53q55 0 55 -53q0 -52 -55 -52z" />
<glyph unicode="&#253;" horiz-adv-x="520" d="M161 -191q-20 0 -37 4q-17 4 -22 7l0 86q9 -7 21 -11.5q12 -4.5 29 -4.5q12 0 22 3.5q10 3.5 19.5 15.5q9.5 12 19 33.5q9.5 21.5 20.5 57.5l-213 526h96l159 -409l133 409h92l-180 -529q-21 -62 -39 -99q-18 -37 -36.5 -56.5q-18.5 -19.5 -38.5 -26q-20 -6.5 -45 -6.5zt0 0zM298 756h116l-125 -139l-73 0z" />
<glyph unicode="&#254;" horiz-adv-x="590" d="M81 753h88v-312q11 20 26 37.5q15 17.5 35.5 30.5q20.5 13 48 20.5q27.5 7.5 63.5 7.5q49 0 86 -14.5q37 -14.5 61.5 -46.5q24.5 -32 37 -83q12.5 -51 12.5 -125q0 -76 -13 -129q-13 -53 -39.5 -86.5q-26.5 -33.5 -65.5 -48.5q-39 -15 -90 -15q-35 0 -61.5 8q-26.5 8 -46 21.5q-19.5 13.5 -32.5 31.5q-13 18 -22 37l0 -267h-88zM449 268q0 53 -8.5 89q-8.5 36 -25.5 58q-17 22 -42.5 31.5q-25.5 9.5 -59.5 9.5q-70 0 -107 -39.5q-37 -39.5 -37 -120.5v-66q0 -78 38 -119q38 -41 103 -41q35 0 61 9.5q26 9.5 43.5 32.5q17.5 23 26 61t8.5 95z" />
<glyph unicode="&#255;" horiz-adv-x="520" d="M161 -191q-20 0 -37 4q-17 4 -22 7l0 86q9 -7 21 -11.5q12 -4.5 29 -4.5q12 0 22 3.5q10 3.5 19.5 15.5q9.5 12 19 33.5q9.5 21.5 20.5 57.5l-213 526h96l159 -409l133 409h92l-180 -529q-21 -62 -39 -99q-18 -37 -36.5 -56.5q-18.5 -19.5 -38.5 -26q-20 -6.5 -45 -6.5zt0 0zM165 634q-55 0 -55 52q0 53 55 53q55 0 55 -53q0 -52 -55 -52zt0 0zM355 634q-55 0 -55 52q0 53 55 53q55 0 55 -53q0 -52 -55 -52z" />
<glyph unicode="&#256;" horiz-adv-x="640" d="M270 700h100l250 -700h-99l-63 185h-281l-63 -185h-94zM205 265h225l-112 331zM178 865h284v-70l-284 0z" />
<glyph unicode="&#257;" horiz-adv-x="535" d="M215 -11q-81 0 -122.5 41q-41.5 41 -41.5 117q0 40 10.5 69.5q10.5 29.5 35.5 49.5q25 20 65 30q40 10 99 10h110v47q0 56 -26 79.5q-26 23.5 -96 23.5q-47 0 -88 -13q-41 -13 -69 -32l0 92q29 14 74 24q45 10 95 10q54 0 92 -10.5q38 -10.5 61.5 -33q23.5 -22.5 34 -57.5q10.5 -35 10.5 -85v-351h-79l-5 90q-18 -42 -57 -71.5q-39 -29.5 -103 -29.5zt0 0zM238 67q62 0 97.5 36.5q35.5 36.5 35.5 104.5v36h-104q-72 0 -99 -22.5q-27 -22.5 -27 -70.5q0 -42 23 -63q23 -21 74 -21zt0 0zM146 709h258v-66l-258 0z" />
<glyph unicode="&#258;" horiz-adv-x="640" d="M270 700h100l250 -700h-99l-63 185h-281l-63 -185h-94zM205 265h225l-112 331zM320 769q-63 0 -104 31.5q-41 31.5 -55 93.5l62 17q11 -38 33 -56.5q22 -18.5 64 -18.5q42 0 65 18.5q23 18.5 33 56.5l61 -17q-14 -62 -54.5 -93.5t-104.5 -31.5z" />
<glyph unicode="&#259;" horiz-adv-x="535" d="M215 -11q-81 0 -122.5 41q-41.5 41 -41.5 117q0 40 10.5 69.5q10.5 29.5 35.5 49.5q25 20 65 30q40 10 99 10h110v47q0 56 -26 79.5q-26 23.5 -96 23.5q-47 0 -88 -13q-41 -13 -69 -32l0 92q29 14 74 24q45 10 95 10q54 0 92 -10.5q38 -10.5 61.5 -33q23.5 -22.5 34 -57.5q10.5 -35 10.5 -85v-351h-79l-5 90q-18 -42 -57 -71.5q-39 -29.5 -103 -29.5zt0 0zM238 67q62 0 97.5 36.5q35.5 36.5 35.5 104.5v36h-104q-72 0 -99 -22.5q-27 -22.5 -27 -70.5q0 -42 23 -63q23 -21 74 -21zt0 0zM273 615q-60 0 -101 32q-41 32 -53 94l60 16q18 -77 94 -77q78 0 96 77l58 -16q-12 -63 -52.5 -94.5t-101.5 -31.5z" />
<glyph unicode="&#260;" horiz-adv-x="640" d="M542 -196q-50 0 -72 20q-22 20 -22 57q0 65 88 119l-15 0l-63 185h-281l-63 -185h-94l250 700h100l250 -700q-51 -26 -73 -54q-22 -28 -22 -51q0 -33 38 -33q29 0 57 16l0 -57q-15 -8 -34 -12.5q-19 -4.5 -44 -4.5zt0 0zM205 265h225l-112 331z" />
<glyph unicode="&#261;" horiz-adv-x="535" d="M381 -196q-50 0 -72 20q-22 20 -22 57q0 65 93 122l-5 87q-18 -42 -57 -71.5q-39 -29.5 -103 -29.5q-81 0 -122.5 41q-41.5 41 -41.5 117q0 40 10.5 69.5q10.5 29.5 35.5 49.5q25 20 65 30q40 10 99 10h110v47q0 56 -26 79.5q-26 23.5 -96 23.5q-47 0 -88 -13q-41 -13 -69 -32l0 92q29 14 74 24q45 10 95 10q54 0 92 -10.5q38 -10.5 61.5 -33q23.5 -22.5 34 -57.5q10.5 -35 10.5 -85v-351q-51 -26 -73.5 -54q-22.5 -28 -22.5 -51q0 -16 9.5 -25.5q9.5 -9.5 29.5 -9.5q15 0 29 4q14 4 28 12l0 -55q-15 -8 -34 -12.5q-19 -4.5 -44 -4.5zt0 0zM238 67q62 0 97.5 36.5q35.5 36.5 35.5 104.5v36h-104q-72 0 -99 -22.5q-27 -22.5 -27 -70.5q0 -42 23 -63t74 -21z" />
<glyph unicode="&#262;" horiz-adv-x="575" d="M358 -11q-77 0 -134.5 20q-57.5 20 -96 64q-38.5 44 -58 113.5q-19.5 69.5 -19.5 168.5q0 93 20 160.5q20 67.5 58.5 111q38.5 43.5 95.5 64q57 20.5 131 20.5q37 0 67 -4.5q30 -4.5 53 -9.5q26 -6 47 -14l0 -96q-29 17 -70 27.5q-41 10.5 -96 10.5q-51 0 -90.5 -14.5q-39.5 -14.5 -66 -46.5q-26.5 -32 -40 -83.5q-13.5 -51.5 -13.5 -125.5q0 -77 14 -130q14 -53 41 -86.5q27 -33.5 67 -48.5q40 -15 92 -15q57 0 100.5 16q43.5 16 69.5 31l0 -97q-22 -10 -49 -18q-23 -7 -54.5 -12.5q-31.5 -5.5 -68.5 -5.5zt0 0zM379 910h118l-133 -140l-75 0z" />
<glyph unicode="&#263;" horiz-adv-x="475" d="M300 -11q-63 0 -110 15.5q-47 15.5 -77.5 49.5q-30.5 34 -46 87q-15.5 53 -15.5 127q0 139 62 204q62 65 180 65q54 0 89 -9.5q35 -9.5 49 -15.5l0 -95q-23 16 -56 27.5q-33 11.5 -75 11.5q-78 0 -118.5 -44q-40.5 -44 -40.5 -144q0 -106 42 -152q42 -46 127 -46q37 0 73 12.5q36 12.5 57 29.5l0 -91q-14 -8 -49.5 -20q-35.5 -12 -90.5 -12zt0 0zM312 756h116l-125 -139l-73 0z" />
<glyph unicode="&#264;" horiz-adv-x="575" d="M358 -11q-77 0 -134.5 20q-57.5 20 -96 64q-38.5 44 -58 113.5q-19.5 69.5 -19.5 168.5q0 93 20 160.5q20 67.5 58.5 111q38.5 43.5 95.5 64q57 20.5 131 20.5q37 0 67 -4.5q30 -4.5 53 -9.5q26 -6 47 -14l0 -96q-29 17 -70 27.5q-41 10.5 -96 10.5q-51 0 -90.5 -14.5q-39.5 -14.5 -66 -46.5q-26.5 -32 -40 -83.5q-13.5 -51.5 -13.5 -125.5q0 -77 14 -130q14 -53 41 -86.5q27 -33.5 67 -48.5q40 -15 92 -15q57 0 100.5 16q43.5 16 69.5 31l0 -97q-22 -10 -49 -18q-23 -7 -54.5 -12.5q-31.5 -5.5 -68.5 -5.5zt0 0zM283 910h100l115 -140h-78l-87 87l-89 -87l-76 0z" />
<glyph unicode="&#265;" horiz-adv-x="475" d="M300 -11q-63 0 -110 15.5q-47 15.5 -77.5 49.5q-30.5 34 -46 87q-15.5 53 -15.5 127q0 139 62 204q62 65 180 65q54 0 89 -9.5q35 -9.5 49 -15.5l0 -95q-23 16 -56 27.5q-33 11.5 -75 11.5q-78 0 -118.5 -44q-40.5 -44 -40.5 -144q0 -106 42 -152q42 -46 127 -46q37 0 73 12.5q36 12.5 57 29.5l0 -91q-14 -8 -49.5 -20q-35.5 -12 -90.5 -12zt0 0zM225 756h96l111 -139h-76l-83 88l-85 -88l-74 0z" />
<glyph unicode="&#266;" horiz-adv-x="575" d="M358 -11q-77 0 -134.5 20q-57.5 20 -96 64q-38.5 44 -58 113.5q-19.5 69.5 -19.5 168.5q0 93 20 160.5q20 67.5 58.5 111q38.5 43.5 95.5 64q57 20.5 131 20.5q37 0 67 -4.5q30 -4.5 53 -9.5q26 -6 47 -14l0 -96q-29 17 -70 27.5q-41 10.5 -96 10.5q-51 0 -90.5 -14.5q-39.5 -14.5 -66 -46.5q-26.5 -32 -40 -83.5q-13.5 -51.5 -13.5 -125.5q0 -77 14 -130q14 -53 41 -86.5q27 -33.5 67 -48.5q40 -15 92 -15q57 0 100.5 16q43.5 16 69.5 31l0 -97q-22 -10 -49 -18q-23 -7 -54.5 -12.5q-31.5 -5.5 -68.5 -5.5zt0 0zM333 784q-58 0 -58 56q0 56 58 56q58 0 58 -56q0 -56 -58 -56z" />
<glyph unicode="&#267;" horiz-adv-x="475" d="M300 -11q-63 0 -110 15.5q-47 15.5 -77.5 49.5q-30.5 34 -46 87q-15.5 53 -15.5 127q0 139 62 204q62 65 180 65q54 0 89 -9.5q35 -9.5 49 -15.5l0 -95q-23 16 -56 27.5q-33 11.5 -75 11.5q-78 0 -118.5 -44q-40.5 -44 -40.5 -144q0 -106 42 -152q42 -46 127 -46q37 0 73 12.5q36 12.5 57 29.5l0 -91q-14 -8 -49.5 -20q-35.5 -12 -90.5 -12zt0 0zM273 632q-56 0 -56 54q0 54 56 54q56 0 56 -54q0 -54 -56 -54z" />
<glyph unicode="&#268;" horiz-adv-x="575" d="M358 -11q-77 0 -134.5 20q-57.5 20 -96 64q-38.5 44 -58 113.5q-19.5 69.5 -19.5 168.5q0 93 20 160.5q20 67.5 58.5 111q38.5 43.5 95.5 64q57 20.5 131 20.5q37 0 67 -4.5q30 -4.5 53 -9.5q26 -6 47 -14l0 -96q-29 17 -70 27.5q-41 10.5 -96 10.5q-51 0 -90.5 -14.5q-39.5 -14.5 -66 -46.5q-26.5 -32 -40 -83.5q-13.5 -51.5 -13.5 -125.5q0 -77 14 -130q14 -53 41 -86.5q27 -33.5 67 -48.5q40 -15 92 -15q57 0 100.5 16q43.5 16 69.5 31l0 -97q-22 -10 -49 -18q-23 -7 -54.5 -12.5q-31.5 -5.5 -68.5 -5.5zt0 0zM168 910h78l88 -87l88 87h76l-115 -140l-100 0z" />
<glyph unicode="&#269;" horiz-adv-x="475" d="M300 -11q-63 0 -110 15.5q-47 15.5 -77.5 49.5q-30.5 34 -46 87q-15.5 53 -15.5 127q0 139 62 204q62 65 180 65q54 0 89 -9.5q35 -9.5 49 -15.5l0 -95q-23 16 -56 27.5q-33 11.5 -75 11.5q-78 0 -118.5 -44q-40.5 -44 -40.5 -144q0 -106 42 -152q42 -46 127 -46q37 0 73 12.5q36 12.5 57 29.5l0 -91q-14 -8 -49.5 -20q-35.5 -12 -90.5 -12zt0 0zM114 756h76l83 -89l85 89h74l-111 -139l-96 0z" />
<glyph unicode="&#270;" horiz-adv-x="680" d="M290 -6q-34 0 -67.5 1.5q-33.5 1.5 -60.5 3.5q-32 3 -61 6l0 690q29 2 61 5q27 2 61.5 4q34.5 2 69.5 2q90 0 154 -19q64 -19 104.5 -60.5q40.5 -41.5 59.5 -108q19 -66.5 19 -160.5q0 -190 -84 -277q-84 -87 -256 -87zt0 0zM534 358q0 75 -12.5 125q-12.5 50 -40.5 80q-28 30 -74 43q-46 13 -112 13q-22 0 -40.5 -1q-18.5 -1 -32.5 -2q-16 -1 -29 -2l0 -528q12 -2 28 -3q14 -1 31.5 -1.5q17.5 -0.5 39.5 -0.5q63 0 108.5 14.5q45.5 14.5 75.5 47.5q30 33 44 86q14 53 14 129zt0 0zM159 910h78l88 -87l88 87h76l-115 -140l-100 0z" />
<glyph unicode="&#271;" horiz-adv-x="660" d="M631 753h84l-56 -179h-58zM421 89q-9 -20 -22.5 -38q-13.5 -18 -33.5 -31.5q-20 -13.5 -47 -22q-27 -8.5 -62 -8.5q-51 0 -89.5 15q-38.5 15 -64 48q-25.5 33 -38.5 86q-13 53 -13 130q0 141 52 205q52 64 149 64q66 0 109 -26.5q43 -26.5 60 -71.5l0 314h88v-753h-82zM141 268q0 -56 9 -94q9 -38 26.5 -61q17.5 -23 43.5 -33q26 -10 61 -10q64 0 102 41q38 41 38 121v67q0 72 -34.5 114.5q-34.5 42.5 -109.5 42.5q-68 0 -102 -42t-34 -146z" />
<glyph unicode="&#272;" horiz-adv-x="690" d="M17 391h94v304q29 2 61 5q27 2 61.5 4q34.5 2 69.5 2q90 0 154 -19q64 -19 104.5 -60.5q40.5 -41.5 59.5 -108q19 -66.5 19 -160.5q0 -190 -84 -277q-84 -87 -256 -87q-34 0 -67.5 1.5q-33.5 1.5 -60.5 3.5q-32 3 -61 6l0 314h-94zM544 358q0 75 -12.5 125q-12.5 50 -40.5 80q-28 30 -74 43q-46 13 -112 13q-22 0 -40.5 -1q-18.5 -1 -32.5 -2q-16 -1 -29 -2l0 -223h166v-72h-166v-233q12 -2 28 -3q14 -1 31.5 -1.5q17.5 -0.5 39.5 -0.5q63 0 108.5 14.5q45.5 14.5 75.5 47.5q30 33 44 86t14 129z" />
<glyph unicode="&#273;" horiz-adv-x="590" d="M228 665h193v88h88v-88h94v-64h-94v-601h-82l-6 89q-9 -20 -22.5 -38q-13.5 -18 -33.5 -31.5q-20 -13.5 -47 -22q-27 -8.5 -62 -8.5q-51 0 -89.5 15q-38.5 15 -64 48q-25.5 33 -38.5 86q-13 53 -13 130q0 141 52 205q52 64 149 64q66 0 109 -26.5q43 -26.5 60 -71.5l0 162h-193zM141 268q0 -56 9 -94q9 -38 26.5 -61q17.5 -23 43.5 -33q26 -10 61 -10q64 0 102 41q38 41 38 121v67q0 72 -34.5 114.5q-34.5 42.5 -109.5 42.5q-68 0 -102 -42t-34 -146z" />
<glyph unicode="&#274;" horiz-adv-x="575" d="M101 700h419v-83h-327v-218h287v-81h-287v-235h327v-83h-419zM168 865h284v-70l-284 0z" />
<glyph unicode="&#275;" horiz-adv-x="550" d="M297 -11q-127 0 -186.5 66.5q-59.5 66.5 -59.5 210.5q0 139 61 205q61 66 168 66q114 0 166.5 -61q52.5 -61 52.5 -195v-41h-360q2 -89 41 -131q39 -42 123 -42q50 0 93 16.5q43 16.5 70 39.5l0 -88q-25 -17 -66.5 -31.5q-41.5 -14.5 -102.5 -14.5zt0 0zM280 462q-68 0 -103.5 -37q-35.5 -37 -37.5 -121l272 0q0 37 -6.5 66.5q-6.5 29.5 -21.5 50q-15 20.5 -40 31q-25 10.5 -63 10.5zt0 0zM151 709h258v-66l-258 0z" />
<glyph unicode="&#278;" horiz-adv-x="575" d="M101 700h419v-83h-327v-218h287v-81h-287v-235h327v-83h-419zM310 784q-58 0 -58 56q0 56 58 56q58 0 58 -56q0 -56 -58 -56z" />
<glyph unicode="&#279;" horiz-adv-x="550" d="M297 -11q-127 0 -186.5 66.5q-59.5 66.5 -59.5 210.5q0 139 61 205q61 66 168 66q114 0 166.5 -61q52.5 -61 52.5 -195v-41h-360q2 -89 41 -131q39 -42 123 -42q50 0 93 16.5q43 16.5 70 39.5l0 -88q-25 -17 -66.5 -31.5q-41.5 -14.5 -102.5 -14.5zt0 0zM280 462q-68 0 -103.5 -37q-35.5 -37 -37.5 -121l272 0q0 37 -6.5 66.5q-6.5 29.5 -21.5 50q-15 20.5 -40 31q-25 10.5 -63 10.5zt0 0zM278 632q-56 0 -56 54q0 54 56 54q56 0 56 -54q0 -54 -56 -54z" />
<glyph unicode="&#280;" horiz-adv-x="575" d="M101 700h419v-83h-327v-218h287v-81h-287v-235h327v-83q-51 -26 -73 -54q-22 -28 -22 -51q0 -33 38 -33q29 0 57 16l0 -57q-15 -8 -34 -12.5q-19 -4.5 -44 -4.5q-50 0 -72 20q-22 20 -22 57q0 65 88 119l-335 0z" />
<glyph unicode="&#281;" horiz-adv-x="550" d="M297 -11q-127 0 -186.5 66.5q-59.5 66.5 -59.5 210.5q0 139 61 205q61 66 168 66q114 0 166.5 -61q52.5 -61 52.5 -195v-41h-360q2 -89 41 -131q39 -42 123 -42q50 0 93 16.5q43 16.5 70 39.5l0 -88l-5 -4q-34 -23 -56.5 -42q-22.5 -19 -36 -35q-13.5 -16 -19.5 -30q-6 -14 -6 -29q0 -16 10 -25.5q10 -9.5 30 -9.5q15 0 28.5 4q13.5 4 27.5 12l0 -55q-15 -8 -33.5 -12.5q-18.5 -4.5 -43.5 -4.5q-50 0 -72 20q-22 20 -22 57q0 32 18 59.5q18 27.5 49 50.5q-9 -1 -18.5 -1.5q-9.5 -0.5 -19.5 -0.5zt0 0zM280 462q-68 0 -103.5 -37q-35.5 -37 -37.5 -121l272 0q0 37 -6.5 66.5q-6.5 29.5 -21.5 50q-15 20.5 -40 31t-63 10.5z" />
<glyph unicode="&#282;" horiz-adv-x="575" d="M101 700h419v-83h-327v-218h287v-81h-287v-235h327v-83h-419zM145 910h78l88 -87l88 87h76l-115 -140l-100 0z" />
<glyph unicode="&#283;" horiz-adv-x="550" d="M297 -11q-127 0 -186.5 66.5q-59.5 66.5 -59.5 210.5q0 139 61 205q61 66 168 66q114 0 166.5 -61q52.5 -61 52.5 -195v-41h-360q2 -89 41 -131q39 -42 123 -42q50 0 93 16.5q43 16.5 70 39.5l0 -88q-25 -17 -66.5 -31.5q-41.5 -14.5 -102.5 -14.5zt0 0zM280 462q-68 0 -103.5 -37q-35.5 -37 -37.5 -121l272 0q0 37 -6.5 66.5q-6.5 29.5 -21.5 50q-15 20.5 -40 31q-25 10.5 -63 10.5zt0 0zM119 756h76l83 -89l85 89h74l-111 -139l-96 0z" />
<glyph unicode="&#284;" horiz-adv-x="650" d="M377 -11q-83 0 -144.5 20.5q-61.5 20.5 -102 64.5q-40.5 44 -60.5 113.5q-20 69.5 -20 167.5q0 184 83 270q83 86 244 86q38 0 68 -4.5q30 -4.5 51 -9.5q25 -6 44 -14l0 -96q-28 14 -70 26q-42 12 -93 12q-116 0 -173.5 -62.5q-57.5 -62.5 -57.5 -207.5q0 -77 14 -130.5q14 -53.5 42.5 -86.5q28.5 -33 72 -48q43.5 -15 102.5 -15q32 0 61 4.5q29 4.5 52 12.5l0 188h-133v80h223v-327q-28 -14 -81 -29q-53 -15 -122 -15zt0 0zM307 910h100l115 -140h-78l-87 87l-89 -87l-76 0z" />
<glyph unicode="&#285;" horiz-adv-x="590" d="M272 -191q-60 0 -106.5 11q-46.5 11 -73.5 25l0 102q10 -9 27.5 -19.5q17.5 -10.5 40.5 -18.5q23 -8 50.5 -13.5q27.5 -5.5 59.5 -5.5q81 0 116 34q35 34 35 105v76q-9 -20 -22.5 -38q-13.5 -18 -33.5 -31.5q-20 -13.5 -47 -22q-27 -8.5 -62 -8.5q-102 0 -153.5 62q-51.5 62 -51.5 205q0 138 52 201.5q52 63.5 149 63.5q66 0 109 -26.5q43 -26.5 60 -71.5l6 87h82v-491q0 -118 -57.5 -172q-57.5 -54 -179.5 -54zt0 0zM281 86q64 0 102 42q38 42 38 119v57q0 34 -8.5 62q-8.5 28 -26.5 48q-18 20 -45 31q-27 11 -64 11q-68 0 -102 -41q-34 -41 -34 -139q0 -53 9 -89.5q9 -36.5 26.5 -59q17.5 -22.5 43.5 -32q26 -9.5 61 -9.5zt0 0zM232 756h96l111 -139h-76l-83 88l-85 -88l-74 0z" />
<glyph unicode="&#286;" horiz-adv-x="650" d="M377 -11q-83 0 -144.5 20.5q-61.5 20.5 -102 64.5q-40.5 44 -60.5 113.5q-20 69.5 -20 167.5q0 184 83 270q83 86 244 86q38 0 68 -4.5q30 -4.5 51 -9.5q25 -6 44 -14l0 -96q-28 14 -70 26q-42 12 -93 12q-116 0 -173.5 -62.5q-57.5 -62.5 -57.5 -207.5q0 -77 14 -130.5q14 -53.5 42.5 -86.5q28.5 -33 72 -48q43.5 -15 102.5 -15q32 0 61 4.5q29 4.5 52 12.5l0 188h-133v80h223v-327q-28 -14 -81 -29q-53 -15 -122 -15zt0 0zM357 769q-63 0 -104 31.5q-41 31.5 -55 93.5l62 17q11 -38 33 -56.5q22 -18.5 64 -18.5q42 0 65 18.5q23 18.5 33 56.5l61 -17q-14 -62 -54.5 -93.5t-104.5 -31.5z" />
<glyph unicode="&#287;" horiz-adv-x="590" d="M272 -191q-60 0 -106.5 11q-46.5 11 -73.5 25l0 102q10 -9 27.5 -19.5q17.5 -10.5 40.5 -18.5q23 -8 50.5 -13.5q27.5 -5.5 59.5 -5.5q81 0 116 34q35 34 35 105v76q-9 -20 -22.5 -38q-13.5 -18 -33.5 -31.5q-20 -13.5 -47 -22q-27 -8.5 -62 -8.5q-102 0 -153.5 62q-51.5 62 -51.5 205q0 138 52 201.5q52 63.5 149 63.5q66 0 109 -26.5q43 -26.5 60 -71.5l6 87h82v-491q0 -118 -57.5 -172q-57.5 -54 -179.5 -54zt0 0zM281 86q64 0 102 42q38 42 38 119v57q0 34 -8.5 62q-8.5 28 -26.5 48q-18 20 -45 31q-27 11 -64 11q-68 0 -102 -41q-34 -41 -34 -139q0 -53 9 -89.5q9 -36.5 26.5 -59q17.5 -22.5 43.5 -32q26 -9.5 61 -9.5zt0 0zM280 615q-60 0 -101 32q-41 32 -53 94l60 16q18 -77 94 -77q78 0 96 77l58 -16q-12 -63 -52.5 -94.5t-101.5 -31.5z" />
<glyph unicode="&#288;" horiz-adv-x="650" d="M377 -11q-83 0 -144.5 20.5q-61.5 20.5 -102 64.5q-40.5 44 -60.5 113.5q-20 69.5 -20 167.5q0 184 83 270q83 86 244 86q38 0 68 -4.5q30 -4.5 51 -9.5q25 -6 44 -14l0 -96q-28 14 -70 26q-42 12 -93 12q-116 0 -173.5 -62.5q-57.5 -62.5 -57.5 -207.5q0 -77 14 -130.5q14 -53.5 42.5 -86.5q28.5 -33 72 -48q43.5 -15 102.5 -15q32 0 61 4.5q29 4.5 52 12.5l0 188h-133v80h223v-327q-28 -14 -81 -29q-53 -15 -122 -15zt0 0zM357 784q-58 0 -58 56q0 56 58 56q58 0 58 -56q0 -56 -58 -56z" />
<glyph unicode="&#289;" horiz-adv-x="590" d="M272 -191q-60 0 -106.5 11q-46.5 11 -73.5 25l0 102q10 -9 27.5 -19.5q17.5 -10.5 40.5 -18.5q23 -8 50.5 -13.5q27.5 -5.5 59.5 -5.5q81 0 116 34q35 34 35 105v76q-9 -20 -22.5 -38q-13.5 -18 -33.5 -31.5q-20 -13.5 -47 -22q-27 -8.5 -62 -8.5q-102 0 -153.5 62q-51.5 62 -51.5 205q0 138 52 201.5q52 63.5 149 63.5q66 0 109 -26.5q43 -26.5 60 -71.5l6 87h82v-491q0 -118 -57.5 -172q-57.5 -54 -179.5 -54zt0 0zM281 86q64 0 102 42q38 42 38 119v57q0 34 -8.5 62q-8.5 28 -26.5 48q-18 20 -45 31q-27 11 -64 11q-68 0 -102 -41q-34 -41 -34 -139q0 -53 9 -89.5q9 -36.5 26.5 -59q17.5 -22.5 43.5 -32q26 -9.5 61 -9.5zt0 0zM280 632q-56 0 -56 54q0 54 56 54q56 0 56 -54q0 -54 -56 -54z" />
<glyph unicode="&#290;" horiz-adv-x="650" d="M377 -11q-83 0 -144.5 20.5q-61.5 20.5 -102 64.5q-40.5 44 -60.5 113.5q-20 69.5 -20 167.5q0 184 83 270q83 86 244 86q38 0 68 -4.5q30 -4.5 51 -9.5q25 -6 44 -14l0 -96q-28 14 -70 26q-42 12 -93 12q-116 0 -173.5 -62.5q-57.5 -62.5 -57.5 -207.5q0 -77 14 -130.5q14 -53.5 42.5 -86.5q28.5 -33 72 -48q43.5 -15 102.5 -15q32 0 61 4.5q29 4.5 52 12.5l0 188h-133v80h223v-327q-28 -14 -81 -29q-53 -15 -122 -15zt0 0zM294 -173q24 2 44 9.5q20 7.5 24 27.5q-45 0 -59.5 11.5q-14.5 11.5 -14.5 31.5q0 19 15.5 31.5q15.5 12.5 53.5 12.5q35 0 52 -15.5q17 -15.5 17 -42.5q0 -43 -31.5 -76q-31.5 -33 -93.5 -38z" />
<glyph unicode="&#291;" horiz-adv-x="590" d="M272 -191q-60 0 -106.5 11q-46.5 11 -73.5 25l0 102q10 -9 27.5 -19.5q17.5 -10.5 40.5 -18.5q23 -8 50.5 -13.5q27.5 -5.5 59.5 -5.5q81 0 116 34q35 34 35 105v76q-9 -20 -22.5 -38q-13.5 -18 -33.5 -31.5q-20 -13.5 -47 -22q-27 -8.5 -62 -8.5q-102 0 -153.5 62q-51.5 62 -51.5 205q0 138 52 201.5q52 63.5 149 63.5q66 0 109 -26.5q43 -26.5 60 -71.5l6 87h82v-491q0 -118 -57.5 -172q-57.5 -54 -179.5 -54zt0 0zM281 86q64 0 102 42q38 42 38 119v57q0 34 -8.5 62q-8.5 28 -26.5 48q-18 20 -45 31q-27 11 -64 11q-68 0 -102 -41q-34 -41 -34 -139q0 -53 9 -89.5q9 -36.5 26.5 -59q17.5 -22.5 43.5 -32q26 -9.5 61 -9.5zt0 0zM340 743q-29 -2 -46.5 -10.5q-17.5 -8.5 -20.5 -27.5q43 0 58 -11q15 -11 15 -31q0 -19 -15.5 -31.5q-15.5 -12.5 -50.5 -12.5q-66 0 -66 62q0 18 7 36.5q7 18.5 21.5 34q14.5 15.5 37 26q22.5 10.5 53.5 13.5z" />
<glyph unicode="&#292;" horiz-adv-x="720" d="M101 700h92v-299h334v299h92v-700h-92v317h-334v-317h-92zM310 910h100l115 -140h-78l-87 87l-89 -87l-76 0z" />
<glyph unicode="&#293;" horiz-adv-x="585" d="M81 753h88v-316q22 48 61 74q39 26 102 26q89 0 133 -46q44 -46 44 -152v-339h-88v308q0 42 -6.5 70.5q-6.5 28.5 -21 46q-14.5 17.5 -37 24.5q-22.5 7 -54.5 7q-63 0 -98 -37q-35 -37 -35 -111v-308h-88zM77 935h96l111 -139h-76l-83 88l-85 -88l-74 0z" />
<glyph unicode="&#294;" horiz-adv-x="740" d="M17 586h94v114h92v-114h334v114h92v-114h94v-72h-94v-514h-92v317h-334v-317h-92v514h-94zM537 401v113h-334l0 -113z" />
<glyph unicode="&#295;" horiz-adv-x="605" d="M7 667h94v86h88v-86h200v-68h-200v-162q22 48 61 74q39 26 102 26q89 0 133 -46q44 -46 44 -152v-339h-88v308q0 42 -6.5 70.5q-6.5 28.5 -21 46q-14.5 17.5 -37 24.5q-22.5 7 -54.5 7q-63 0 -98 -37q-35 -37 -35 -111v-308h-88v599l-94 0z" />
<glyph unicode="&#298;" horiz-adv-x="330" d="M119 700h92v-700h-92zM23 865h284v-70l-284 0z" />
<glyph unicode="&#299;" horiz-adv-x="290" d="M101 526h88v-526h-88zM18 709h258v-66l-258 0z" />
<glyph unicode="&#302;" horiz-adv-x="330" d="M119 700h92v-699l3 -1q-51 -26 -73.5 -54q-22.5 -28 -22.5 -51q0 -16 9.5 -25.5q9.5 -9.5 29.5 -9.5q15 0 29 4q14 4 28 12l0 -55q-15 -8 -34 -12.5q-19 -4.5 -44 -4.5q-50 0 -72 20q-22 20 -22 57q0 63 87 119l-10 0z" />
<glyph unicode="&#303;" horiz-adv-x="290" d="M101 526h88v-524l5 -2q-51 -26 -73.5 -54q-22.5 -28 -22.5 -51q0 -16 9.5 -25.5q9.5 -9.5 29.5 -9.5q15 0 29 4q14 4 28 12l0 -55q-15 -8 -34 -12.5q-19 -4.5 -44 -4.5q-50 0 -72 20q-22 20 -22 57q0 63 87 119l-8 0zM145 632q-56 0 -56 54q0 54 56 54q56 0 56 -54q0 -54 -56 -54z" />
<glyph unicode="&#304;" horiz-adv-x="330" d="M119 700h92v-700h-92zM165 784q-58 0 -58 56q0 56 58 56q58 0 58 -56q0 -56 -58 -56z" />
<glyph unicode="&#305;" horiz-adv-x="290" d="M101 526h88v-526l-88 0z" />
<glyph unicode="&#308;" horiz-adv-x="420" d="M140 -11q-24 0 -43 2.5q-19 2.5 -33 6.5q-16 4 -29 9l0 97q11 -9 25 -15q12 -5 30 -9.5q18 -4.5 41 -4.5q46 0 68 24.5q22 24.5 22 83.5v517h93v-517q0 -105 -42 -149.5q-42 -44.5 -132 -44.5zt0 0zM218 910h100l115 -140h-78l-87 87l-89 -87l-76 0z" />
<glyph unicode="&#309;" horiz-adv-x="290" d="M53 -186q-26 0 -46.5 4q-20.5 4 -27.5 8l0 88q11 -8 26.5 -13q15.5 -5 34.5 -5q32 0 46.5 17q14.5 17 14.5 63v550h88v-553q0 -85 -34 -122q-34 -37 -102 -37zt0 0zM97 756h96l111 -139h-76l-83 88l-85 -88l-74 0z" />
<glyph unicode="&#310;" horiz-adv-x="655" d="M266 317h-73v-317h-92v700h92v-300h73l231 300h113l-266 -340l286 -360h-116zM302 -173q24 2 44 9.5q20 7.5 24 27.5q-45 0 -59.5 11.5q-14.5 11.5 -14.5 31.5q0 19 15.5 31.5q15.5 12.5 53.5 12.5q35 0 52 -15.5q17 -15.5 17 -42.5q0 -43 -31.5 -76q-31.5 -33 -93.5 -38z" />
<glyph unicode="&#311;" horiz-adv-x="555" d="M81 753h88v-440h60l167 213h103l-199 -251l219 -275h-106l-184 234h-60v-234h-88zM240 -173q29 2 46.5 10.5q17.5 8.5 20.5 27.5q-43 0 -58 11q-15 11 -15 31q0 19 15.5 31.5q15.5 12.5 50.5 12.5q66 0 66 -62q0 -18 -7 -36.5q-7 -18.5 -21.5 -34q-14.5 -15.5 -37 -26q-22.5 -10.5 -53.5 -13.5z" />
<glyph unicode="&#313;" horiz-adv-x="530" d="M101 700h92v-617h307v-83h-399zM196 910h118l-133 -140l-75 0z" />
<glyph unicode="&#314;" horiz-adv-x="315" d="M205 -6q-67 0 -98 32q-31 32 -31 100v627h88v-610q0 -39 13 -52.5q13 -13.5 44 -13.5q17 0 34 5q17 5 25 9l0 -82q-8 -3 -28 -9q-20 -6 -47 -6zt0 0zM161 903h109l-117 -121l-69 0z" />
<glyph unicode="&#315;" horiz-adv-x="530" d="M101 700h92v-617h307v-83h-399zM237 -173q24 2 44 9.5q20 7.5 24 27.5q-45 0 -59.5 11.5q-14.5 11.5 -14.5 31.5q0 19 15.5 31.5q15.5 12.5 53.5 12.5q35 0 52 -15.5q17 -15.5 17 -42.5q0 -43 -31.5 -76q-31.5 -33 -93.5 -38z" />
<glyph unicode="&#316;" horiz-adv-x="315" d="M205 -6q-67 0 -98 32q-31 32 -31 100v627h88v-610q0 -39 13 -52.5q13 -13.5 44 -13.5q17 0 34 5q17 5 25 9l0 -82q-8 -3 -28 -9q-20 -6 -47 -6zt0 0zM123 -173q29 2 46.5 10.5q17.5 8.5 20.5 27.5q-43 0 -58 11q-15 11 -15 31q0 19 15.5 31.5q15.5 12.5 50.5 12.5q66 0 66 -62q0 -18 -7 -36.5q-7 -18.5 -21.5 -34q-14.5 -15.5 -37 -26q-22.5 -10.5 -53.5 -13.5z" />
<glyph unicode="&#317;" horiz-adv-x="530" d="M365 700h89l-62 -186h-63zM101 700h92v-617h307v-83l-399 0z" />
<glyph unicode="&#318;" horiz-adv-x="375" d="M292 753h85l-63 -179h-59zM205 -6q-67 0 -98 32q-31 32 -31 100v627h88v-610q0 -39 13 -52.5q13 -13.5 44 -13.5q17 0 34 5q17 5 25 9l0 -82q-8 -3 -28 -9t-47 -6z" />
<glyph unicode="&#319;" horiz-adv-x="530" d="M101 700h92v-617h307v-83h-399zM412 316q-64 0 -64 64q0 64 64 64q64 0 64 -64q0 -64 -64 -64z" />
<glyph unicode="&#320;" horiz-adv-x="415" d="M205 -6q-67 0 -98 32q-31 32 -31 100v627h88v-610q0 -39 13 -52.5q13 -13.5 44 -13.5q17 0 34 5q17 5 25 9l0 -82q-8 -3 -28 -9q-20 -6 -47 -6zt0 0zM325 316q-64 0 -64 64q0 64 64 64q64 0 64 -64q0 -64 -64 -64z" />
<glyph unicode="&#321;" horiz-adv-x="540" d="M17 341l94 54v305h92v-252l153 89v-81l-153 -89v-284h307v-83h-399v314l-94 -54z" />
<glyph unicode="&#322;" horiz-adv-x="370" d="M17 367l100 57v329h88v-278l107 62v-78l-107 -62v-254q0 -39 13.5 -52.5q13.5 -13.5 43.5 -13.5q17 0 34 5q17 5 25 9l0 -82q-8 -3 -28 -9q-20 -6 -47 -6q-67 0 -98 32q-31 32 -31 100v220l-100 -57z" />
<glyph unicode="&#323;" horiz-adv-x="740" d="M101 700h103l286 -454q12 -20 22.5 -39q10.5 -19 18.5 -34q9 -18 17 -33l2 0q-1 15 -2 33q-1 15 -1 34q0 19 0 39v454h92v-700h-103l-286 454q-14 23 -24.5 42q-10.5 19 -18.5 33q-9 17 -15 31l-2 0q0 -14 1 -31q1 -14 1.5 -33q0.5 -19 0.5 -42v-454h-92zM415 910h118l-133 -140l-75 0z" />
<glyph unicode="&#324;" horiz-adv-x="585" d="M81 526h82l6 -89q22 48 61 74q39 26 102 26q89 0 133 -46q44 -46 44 -152v-339h-88v310q0 42 -6.5 70q-6.5 28 -21 45q-14.5 17 -37 24q-22.5 7 -54.5 7q-63 0 -98 -37q-35 -37 -35 -109v-310h-88zM333 756h116l-125 -139l-73 0z" />
<glyph unicode="&#325;" horiz-adv-x="740" d="M101 700h103l286 -454q12 -20 22.5 -39q10.5 -19 18.5 -34q9 -18 17 -33l2 0q-1 15 -2 33q-1 15 -1 34q0 19 0 39v454h92v-700h-103l-286 454q-14 23 -24.5 42q-10.5 19 -18.5 33q-9 17 -15 31l-2 0q0 -14 1 -31q1 -14 1.5 -33q0.5 -19 0.5 -42v-454h-92zM307 -173q24 2 44 9.5q20 7.5 24 27.5q-45 0 -59.5 11.5q-14.5 11.5 -14.5 31.5q0 19 15.5 31.5q15.5 12.5 53.5 12.5q35 0 52 -15.5q17 -15.5 17 -42.5q0 -43 -31.5 -76q-31.5 -33 -93.5 -38z" />
<glyph unicode="&#326;" horiz-adv-x="585" d="M81 526h82l6 -89q22 48 61 74q39 26 102 26q89 0 133 -46q44 -46 44 -152v-339h-88v310q0 42 -6.5 70q-6.5 28 -21 45q-14.5 17 -37 24q-22.5 7 -54.5 7q-63 0 -98 -37q-35 -37 -35 -109v-310h-88zM235 -173q29 2 46.5 10.5q17.5 8.5 20.5 27.5q-43 0 -58 11q-15 11 -15 31q0 19 15.5 31.5q15.5 12.5 50.5 12.5q66 0 66 -62q0 -18 -7 -36.5q-7 -18.5 -21.5 -34q-14.5 -15.5 -37 -26q-22.5 -10.5 -53.5 -13.5z" />
<glyph unicode="&#327;" horiz-adv-x="740" d="M101 700h103l286 -454q12 -20 22.5 -39q10.5 -19 18.5 -34q9 -18 17 -33l2 0q-1 15 -2 33q-1 15 -1 34q0 19 0 39v454h92v-700h-103l-286 454q-14 23 -24.5 42q-10.5 19 -18.5 33q-9 17 -15 31l-2 0q0 -14 1 -31q1 -14 1.5 -33q0.5 -19 0.5 -42v-454h-92zM205 910h78l88 -87l88 87h76l-115 -140l-100 0z" />
<glyph unicode="&#328;" horiz-adv-x="585" d="M81 526h82l6 -89q22 48 61 74q39 26 102 26q89 0 133 -46q44 -46 44 -152v-339h-88v310q0 42 -6.5 70q-6.5 28 -21 45q-14.5 17 -37 24q-22.5 7 -54.5 7q-63 0 -98 -37q-35 -37 -35 -109v-310h-88zM136 756h76l83 -89l85 89h74l-111 -139l-96 0z" />
<glyph unicode="&#332;" horiz-adv-x="710" d="M355 -11q-74 0 -130.5 21q-56.5 21 -95.5 65q-39 44 -59 112q-20 68 -20 163q0 95 20 163q20 68 59 112q39 44 95.5 65q56.5 21 130.5 21q76 0 133 -20q57 -20 95.5 -63.5q38.5 -43.5 57.5 -112q19 -68.5 19 -165.5q0 -95 -20 -163q-20 -68 -59 -112q-39 -44 -96 -65q-57 -21 -130 -21zt0 0zM355 73q51 0 90 14.5q39 14.5 65.5 47.5q26.5 33 40 86q13.5 53 13.5 129q0 76 -13.5 129q-13.5 53 -40 86q-26.5 33 -65.5 47.5q-39 14.5 -90 14.5q-50 0 -89 -15q-39 -15 -65.5 -48q-26.5 -33 -40.5 -85.5q-14 -52.5 -14 -128.5q0 -75 14 -127.5q14 -52.5 40.5 -86q26.5 -33.5 65.5 -48.5q39 -15 89 -15zt0 0zM213 865h284v-70l-284 0z" />
<glyph unicode="&#333;" horiz-adv-x="570" d="M285 -11q-115 0 -174.5 65q-59.5 65 -59.5 209q0 140 62 207q62 67 172 67q117 0 175.5 -63.5q58.5 -63.5 58.5 -210.5q0 -144 -60.5 -209q-60.5 -65 -173.5 -65zt0 0zM285 70q36 0 63 10q27 10 45 32.5q18 22.5 27 59.5q9 37 9 91q0 54 -9 91q-9 37 -27 59.5q-18 22.5 -45 32.5q-27 10 -63 10q-69 0 -106.5 -43.5q-37.5 -43.5 -37.5 -149.5q0 -54 9 -91q9 -37 27 -59.5q18 -22.5 45 -32.5q27 -10 63 -10zt0 0zM158 709h258v-66l-258 0z" />
<glyph unicode="&#336;" horiz-adv-x="710" d="M355 -11q-74 0 -130.5 21q-56.5 21 -95.5 65q-39 44 -59 112q-20 68 -20 163q0 95 20 163q20 68 59 112q39 44 95.5 65q56.5 21 130.5 21q76 0 133 -20q57 -20 95.5 -63.5q38.5 -43.5 57.5 -112q19 -68.5 19 -165.5q0 -95 -20 -163q-20 -68 -59 -112q-39 -44 -96 -65q-57 -21 -130 -21zt0 0zM355 73q51 0 90 14.5q39 14.5 65.5 47.5q26.5 33 40 86q13.5 53 13.5 129q0 76 -13.5 129q-13.5 53 -40 86q-26.5 33 -65.5 47.5q-39 14.5 -90 14.5q-50 0 -89 -15q-39 -15 -65.5 -48q-26.5 -33 -40.5 -85.5q-14 -52.5 -14 -128.5q0 -75 14 -127.5q14 -52.5 40.5 -86q26.5 -33.5 65.5 -48.5q39 -15 89 -15zt0 0zM297 910h100l-93 -140h-66zM487 910h115l-144 -140l-74 0z" />
<glyph unicode="&#337;" horiz-adv-x="570" d="M285 -11q-115 0 -174.5 65q-59.5 65 -59.5 209q0 140 62 207q62 67 172 67q117 0 175.5 -63.5q58.5 -63.5 58.5 -210.5q0 -144 -60.5 -209q-60.5 -65 -173.5 -65zt0 0zM285 70q36 0 63 10q27 10 45 32.5q18 22.5 27 59.5q9 37 9 91q0 54 -9 91q-9 37 -27 59.5q-18 22.5 -45 32.5q-27 10 -63 10q-69 0 -106.5 -43.5q-37.5 -43.5 -37.5 -149.5q0 -54 9 -91q9 -37 27 -59.5q18 -22.5 45 -32.5q27 -10 63 -10zt0 0zM222 756h100l-83 -139h-66zM403 756h114l-134 -139l-73 0z" />
<glyph unicode="&#338;" horiz-adv-x="935" d="M355 -11q-75 0 -132.5 20q-57.5 20 -95.5 64q-38 44 -57.5 113.5q-19.5 69.5 -19.5 168.5q0 93 20 160.5q20 67.5 58.5 111q38.5 43.5 95.5 64q57 20.5 131 20.5q38 0 70 -3.5q32 -3.5 53 -7.5l402 0v-83h-324v-218h284v-81h-284v-235h324v-83h-395q-23 -4 -56 -7.5q-33 -3.5 -74 -3.5zt0 0zM357 75q30 0 57.5 2q27.5 2 49.5 5l0 534q-21 4 -48 6.5q-27 2.5 -59 2.5q-52 0 -91.5 -14.5q-39.5 -14.5 -66 -46.5q-26.5 -32 -40 -83.5q-13.5 -51.5 -13.5 -125.5q0 -77 14 -130q14 -53 40.5 -86.5q26.5 -33.5 66 -48.5t90.5 -15z" />
<glyph unicode="&#339;" horiz-adv-x="920" d="M670 -11q-73 0 -123 24.5q-50 24.5 -77 77.5q-28 -53 -75.5 -77.5q-47.5 -24.5 -112.5 -24.5q-113 0 -172 65q-59 65 -59 209q0 140 61.5 207q61.5 67 169.5 67q68 0 115.5 -24q47.5 -24 73.5 -77q28 51 74.5 76q46.5 25 107.5 25q112 0 164 -60.5q52 -60.5 52 -195.5v-41h-355q2 -89 41 -131q39 -42 121 -42q48 0 90.5 16.5q42.5 16.5 69.5 39.5l0 -88q-24 -17 -65.5 -31.5q-41.5 -14.5 -100.5 -14.5zt0 0zM282 70q35 0 61.5 10q26.5 10 44 32.5q17.5 22.5 26.5 59.5q9 37 9 91q0 54 -9 91q-9 37 -26.5 59.5q-17.5 22.5 -44 32.5q-26.5 10 -61.5 10q-33 0 -59.5 -10.5q-26.5 -10.5 -44.5 -33.5q-18 -23 -27.5 -59.5q-9.5 -36.5 -9.5 -89.5q0 -54 9 -91q9 -37 26.5 -59.5q17.5 -22.5 44 -32.5q26.5 -10 61.5 -10zt0 0zM653 462q-66 0 -101 -37q-35 -37 -38 -121l267 0q0 76 -27.5 117t-100.5 41z" />
<glyph unicode="&#340;" horiz-adv-x="640" d="M333 269q-10 -1 -19.5 -1q-9.5 0 -20.5 0h-100v-268h-92v695q27 2 58 5q26 2 60 4q34 2 71 2q70 0 119 -13q49 -13 79.5 -40q30.5 -27 44 -68q13.5 -41 13.5 -96q0 -78 -29.5 -128.5q-29.5 -50.5 -93.5 -73.5l166 -287h-104zM450 486q0 36 -8 61q-8 25 -26 41q-18 16 -48 23.5q-30 7.5 -75 7.5q-20 0 -38 -0.5q-18 -0.5 -32 -1.5q-17 -1 -31 -1l0 -264h101q84 0 120.5 33.5q36.5 33.5 36.5 100.5zt0 0zM349 910h118l-133 -140l-75 0z" />
<glyph unicode="&#341;" horiz-adv-x="410" d="M81 526h77l6 -90q19 54 55.5 77.5q36.5 23.5 87.5 23.5q17 0 31.5 -2.5q14.5 -2.5 20.5 -4.5l0 -95q-13 9 -31 15q-18 6 -44 6q-54 0 -84.5 -35.5q-30.5 -35.5 -30.5 -116.5v-304h-88zM258 756h116l-125 -139l-73 0z" />
<glyph unicode="&#342;" horiz-adv-x="640" d="M333 269q-10 -1 -19.5 -1q-9.5 0 -20.5 0h-100v-268h-92v695q27 2 58 5q26 2 60 4q34 2 71 2q70 0 119 -13q49 -13 79.5 -40q30.5 -27 44 -68q13.5 -41 13.5 -96q0 -78 -29.5 -128.5q-29.5 -50.5 -93.5 -73.5l166 -287h-104zM450 486q0 36 -8 61q-8 25 -26 41q-18 16 -48 23.5q-30 7.5 -75 7.5q-20 0 -38 -0.5q-18 -0.5 -32 -1.5q-17 -1 -31 -1l0 -264h101q84 0 120.5 33.5q36.5 33.5 36.5 100.5zt0 0zM282 -173q24 2 44 9.5q20 7.5 24 27.5q-45 0 -59.5 11.5q-14.5 11.5 -14.5 31.5q0 19 15.5 31.5q15.5 12.5 53.5 12.5q35 0 52 -15.5q17 -15.5 17 -42.5q0 -43 -31.5 -76q-31.5 -33 -93.5 -38z" />
<glyph unicode="&#343;" horiz-adv-x="410" d="M81 526h77l6 -90q19 54 55.5 77.5q36.5 23.5 87.5 23.5q17 0 31.5 -2.5q14.5 -2.5 20.5 -4.5l0 -95q-13 9 -31 15q-18 6 -44 6q-54 0 -84.5 -35.5q-30.5 -35.5 -30.5 -116.5v-304h-88zM65 -173q29 2 46.5 10.5q17.5 8.5 20.5 27.5q-43 0 -58 11q-15 11 -15 31q0 19 15.5 31.5q15.5 12.5 50.5 12.5q66 0 66 -62q0 -18 -7 -36.5q-7 -18.5 -21.5 -34q-14.5 -15.5 -37 -26q-22.5 -10.5 -53.5 -13.5z" />
<glyph unicode="&#344;" horiz-adv-x="640" d="M333 269q-10 -1 -19.5 -1q-9.5 0 -20.5 0h-100v-268h-92v695q27 2 58 5q26 2 60 4q34 2 71 2q70 0 119 -13q49 -13 79.5 -40q30.5 -27 44 -68q13.5 -41 13.5 -96q0 -78 -29.5 -128.5q-29.5 -50.5 -93.5 -73.5l166 -287h-104zM450 486q0 36 -8 61q-8 25 -26 41q-18 16 -48 23.5q-30 7.5 -75 7.5q-20 0 -38 -0.5q-18 -0.5 -32 -1.5q-17 -1 -31 -1l0 -264h101q84 0 120.5 33.5q36.5 33.5 36.5 100.5zt0 0zM138 910h78l88 -87l88 87h76l-115 -140l-100 0z" />
<glyph unicode="&#345;" horiz-adv-x="410" d="M81 526h77l6 -90q19 54 55.5 77.5q36.5 23.5 87.5 23.5q17 0 31.5 -2.5q14.5 -2.5 20.5 -4.5l0 -95q-13 9 -31 15q-18 6 -44 6q-54 0 -84.5 -35.5q-30.5 -35.5 -30.5 -116.5v-304h-88zM61 756h76l83 -89l85 89h74l-111 -139l-96 0z" />
<glyph unicode="&#346;" horiz-adv-x="580" d="M282 -11q-64 0 -117.5 15.5q-53.5 15.5 -85.5 37.5l0 106q15 -13 35.5 -26q20.5 -13 46 -23.5q25.5 -10.5 55 -17q29.5 -6.5 62.5 -6.5q76 0 108.5 28.5q32.5 28.5 32.5 81.5q0 44 -25 69.5q-25 25.5 -63 42q-38 16.5 -82 30.5q-44 14 -82 37q-38 23 -63 59.5q-25 36.5 -25 98.5q0 91 54 140q54 49 175 49q55 0 101 -10q46 -10 75 -25l0 -106q-29 25 -76 40q-47 15 -96 15q-39 0 -65.5 -6q-26.5 -6 -42.5 -18.5q-16 -12.5 -22.5 -31.5q-6.5 -19 -6.5 -44q0 -43 25 -66.5q25 -23.5 63 -39q38 -15.5 81.5 -29q43.5 -13.5 81.5 -36.5q38 -23 63 -62q25 -39 25 -104q0 -95 -56 -147q-56 -52 -176 -52zt0 0zM340 910h118l-133 -140l-75 0z" />
<glyph unicode="&#347;" horiz-adv-x="475" d="M227 -11q-86 0 -156 31l0 98q29 -25 68.5 -38q39.5 -13 85.5 -13q54 0 76.5 20q22.5 20 22.5 58q0 32 -19 48.5q-19 16.5 -48 26.5q-29 10 -62 18.5q-33 8.5 -62 24.5q-29 16 -48 43.5q-19 27.5 -19 76.5q0 76 43 115q43 39 143 39q40 0 77 -7.5q37 -7.5 60 -16.5l0 -95q-29 20 -62.5 30.5q-33.5 10.5 -73.5 10.5q-54 0 -75.5 -18q-21.5 -18 -21.5 -51q0 -30 19 -45.5q19 -15.5 48 -25q29 -9.5 62 -18q33 -8.5 62 -25q29 -16.5 48 -45.5q19 -29 19 -80q0 -81 -44 -121.5q-44 -40.5 -143 -40.5zt0 0zM278 756h116l-125 -139l-73 0z" />
<glyph unicode="&#348;" horiz-adv-x="580" d="M282 -11q-64 0 -117.5 15.5q-53.5 15.5 -85.5 37.5l0 106q15 -13 35.5 -26q20.5 -13 46 -23.5q25.5 -10.5 55 -17q29.5 -6.5 62.5 -6.5q76 0 108.5 28.5q32.5 28.5 32.5 81.5q0 44 -25 69.5q-25 25.5 -63 42q-38 16.5 -82 30.5q-44 14 -82 37q-38 23 -63 59.5q-25 36.5 -25 98.5q0 91 54 140q54 49 175 49q55 0 101 -10q46 -10 75 -25l0 -106q-29 25 -76 40q-47 15 -96 15q-39 0 -65.5 -6q-26.5 -6 -42.5 -18.5q-16 -12.5 -22.5 -31.5q-6.5 -19 -6.5 -44q0 -43 25 -66.5q25 -23.5 63 -39q38 -15.5 81.5 -29q43.5 -13.5 81.5 -36.5q38 -23 63 -62q25 -39 25 -104q0 -95 -56 -147q-56 -52 -176 -52zt0 0zM245 910h100l115 -140h-78l-87 87l-89 -87l-76 0z" />
<glyph unicode="&#349;" horiz-adv-x="475" d="M227 -11q-86 0 -156 31l0 98q29 -25 68.5 -38q39.5 -13 85.5 -13q54 0 76.5 20q22.5 20 22.5 58q0 32 -19 48.5q-19 16.5 -48 26.5q-29 10 -62 18.5q-33 8.5 -62 24.5q-29 16 -48 43.5q-19 27.5 -19 76.5q0 76 43 115q43 39 143 39q40 0 77 -7.5q37 -7.5 60 -16.5l0 -95q-29 20 -62.5 30.5q-33.5 10.5 -73.5 10.5q-54 0 -75.5 -18q-21.5 -18 -21.5 -51q0 -30 19 -45.5q19 -15.5 48 -25q29 -9.5 62 -18q33 -8.5 62 -25q29 -16.5 48 -45.5q19 -29 19 -80q0 -81 -44 -121.5q-44 -40.5 -143 -40.5zt0 0zM192 756h96l111 -139h-76l-83 88l-85 -88l-74 0z" />
<glyph unicode="&#350;" horiz-adv-x="580" d="M291 -217q-26 0 -43.5 4q-17.5 4 -32.5 11l7 49q15 -6 28.5 -9q13.5 -3 31.5 -3q50 0 50 40q0 20 -12.5 30.5q-12.5 10.5 -41.5 10.5q-8 0 -17 -0.5q-9 -0.5 -15 -1.5l14 76q-57 2 -104.5 17q-47.5 15 -76.5 35l0 106q15 -13 35.5 -26q20.5 -13 46 -23.5q25.5 -10.5 55 -17q29.5 -6.5 62.5 -6.5q76 0 108.5 28.5q32.5 28.5 32.5 81.5q0 44 -25 69.5q-25 25.5 -63 42q-38 16.5 -82 30.5q-44 14 -82 37q-38 23 -63 59.5q-25 36.5 -25 98.5q0 91 54 140q54 49 175 49q55 0 101 -10q46 -10 75 -25l0 -106q-29 25 -76 40q-47 15 -96 15q-39 0 -65.5 -6q-26.5 -6 -42.5 -18.5q-16 -12.5 -22.5 -31.5q-6.5 -19 -6.5 -44q0 -43 25 -66.5q25 -23.5 63 -39q38 -15.5 81.5 -29q43.5 -13.5 81.5 -36.5q38 -23 63 -62q25 -39 25 -104q0 -90 -48.5 -140.5q-48.5 -50.5 -152.5 -57.5l-7 -34q97 0 97 -81q0 -42 -28.5 -67t-83.5 -25z" />
<glyph unicode="&#351;" horiz-adv-x="475" d="M236 -217q-26 0 -43.5 4q-17.5 4 -32.5 11l7 49q15 -6 28.5 -9q13.5 -3 31.5 -3q50 0 50 40q0 20 -12.5 30.5q-12.5 10.5 -41.5 10.5q-8 0 -17 -0.5q-9 -0.5 -15 -1.5l14 76q-76 3 -134 30l0 98q29 -25 68.5 -38q39.5 -13 85.5 -13q54 0 76.5 20q22.5 20 22.5 58q0 32 -19 48.5q-19 16.5 -48 26.5q-29 10 -62 18.5q-33 8.5 -62 24.5q-29 16 -48 43.5q-19 27.5 -19 76.5q0 76 43 115q43 39 143 39q40 0 77 -7.5q37 -7.5 60 -16.5l0 -95q-29 20 -62.5 30.5q-33.5 10.5 -73.5 10.5q-54 0 -75.5 -18q-21.5 -18 -21.5 -51q0 -30 19 -45.5q19 -15.5 48 -25q29 -9.5 62 -18q33 -8.5 62 -25q29 -16.5 48 -45.5q19 -29 19 -80q0 -75 -36.5 -115q-36.5 -40 -119.5 -46l-7 -34q97 0 97 -81q0 -42 -28.5 -67t-83.5 -25z" />
<glyph unicode="&#352;" horiz-adv-x="580" d="M282 -11q-64 0 -117.5 15.5q-53.5 15.5 -85.5 37.5l0 106q15 -13 35.5 -26q20.5 -13 46 -23.5q25.5 -10.5 55 -17q29.5 -6.5 62.5 -6.5q76 0 108.5 28.5q32.5 28.5 32.5 81.5q0 44 -25 69.5q-25 25.5 -63 42q-38 16.5 -82 30.5q-44 14 -82 37q-38 23 -63 59.5q-25 36.5 -25 98.5q0 91 54 140q54 49 175 49q55 0 101 -10q46 -10 75 -25l0 -106q-29 25 -76 40q-47 15 -96 15q-39 0 -65.5 -6q-26.5 -6 -42.5 -18.5q-16 -12.5 -22.5 -31.5q-6.5 -19 -6.5 -44q0 -43 25 -66.5q25 -23.5 63 -39q38 -15.5 81.5 -29q43.5 -13.5 81.5 -36.5q38 -23 63 -62q25 -39 25 -104q0 -95 -56 -147q-56 -52 -176 -52zt0 0zM130 910h78l88 -87l88 87h76l-115 -140l-100 0z" />
<glyph unicode="&#353;" horiz-adv-x="475" d="M227 -11q-86 0 -156 31l0 98q29 -25 68.5 -38q39.5 -13 85.5 -13q54 0 76.5 20q22.5 20 22.5 58q0 32 -19 48.5q-19 16.5 -48 26.5q-29 10 -62 18.5q-33 8.5 -62 24.5q-29 16 -48 43.5q-19 27.5 -19 76.5q0 76 43 115q43 39 143 39q40 0 77 -7.5q37 -7.5 60 -16.5l0 -95q-29 20 -62.5 30.5q-33.5 10.5 -73.5 10.5q-54 0 -75.5 -18q-21.5 -18 -21.5 -51q0 -30 19 -45.5q19 -15.5 48 -25q29 -9.5 62 -18q33 -8.5 62 -25q29 -16.5 48 -45.5q19 -29 19 -80q0 -81 -44 -121.5q-44 -40.5 -143 -40.5zt0 0zM81 756h76l83 -89l85 89h74l-111 -139l-96 0z" />
</font>
</defs>
</svg>
