<?xml version="1.0" encoding="UTF-8" standalone="no"?>
<!DOCTYPE svg PUBLIC "-//W3C//DTD SVG 1.1//EN" "http://www.w3.org/Graphics/SVG/1.1/DTD/svg11.dtd" >
<svg xmlns="http://www.w3.org/2000/svg">
<metadata>
Generated by SVGconv.
Copyright   : Copyright (c) 2018 ParaType Inc., ParaType Ltd. All rights reserved.
Designer    : ParaType Ltd
Foundry     : ParaType Ltd
Foundry URL : http://www.paratype.com
</metadata>
<defs>
<font id="SBSansInterface-Bold" horiz-adv-x="564" >
<font-face units-per-em="1000" ascent="950" descent="250" >
<font-face-src>
<font-face-name/>
</font-face-src>
</font-face>
<missing-glyph horiz-adv-x="500" />
<glyph unicode="&#13;" horiz-adv-x="250" />
<glyph unicode="&#32;" horiz-adv-x="250" />
<glyph unicode="&#33;" horiz-adv-x="330" d="M165 -7q-95 0 -95 95q0 95 95 95q95 0 95 -95q0 -95 -95 -95zt0 0zM85 700h160l-15 -450l-130 0z" />
<glyph unicode="&#34;" horiz-adv-x="470" d="M70 700h120v-280h-120zM280 700h120v-280l-120 0z" />
<glyph unicode="&#35;" horiz-adv-x="600" d="M317 180h-95l-31 -180h-116l31 180h-91l19 110h92l21 120h-92l19 110h92l32 180h116l-32 -180h95l32 180h116l-32 -180h92l-19 -110h-92l-21 -120h92l-19 -110h-93l-31 -180h-116zM242 290h95l21 120l-95 0z" />
<glyph unicode="&#36;" horiz-adv-x="600" d="M245 -12q-54 5 -97.5 17.5q-43.5 12.5 -72.5 29.5l0 166q12 -11 32 -23q20 -12 46.5 -22.5q26.5 -10.5 59.5 -17q33 -6.5 72 -6.5q55 0 76.5 17q21.5 17 21.5 46q0 33 -23.5 51.5q-23.5 18.5 -59 32.5q-35.5 14 -76.5 28q-41 14 -76.5 37.5q-35.5 23.5 -59 61.5q-23.5 38 -23.5 99q0 86 43 138q43 52 137 66l0 91h120v-88q46 -3 85 -12q39 -9 65 -21l0 -166q-35 26 -86 40.5q-51 14.5 -104 14.5q-29 0 -48 -3.5q-19 -3.5 -30 -10.5q-11 -7 -15.5 -17q-4.5 -10 -4.5 -22q0 -30 23.5 -47q23.5 -17 59 -30q35.5 -13 76.5 -27.5q41 -14.5 76.5 -38.5q35.5 -24 59 -63.5q23.5 -39.5 23.5 -103.5q0 -91 -43 -145.5q-43 -54.5 -137 -68.5l0 -111l-120 0z" />
<glyph unicode="&#37;" horiz-adv-x="860" d="M600 700h100l-440 -700h-100zM230 373q-170 0 -170 167q0 81 43.5 124q43.5 43 126.5 43q170 0 170 -167q0 -81 -43.5 -124q-43.5 -43 -126.5 -43zt0 0zM230 463q35 0 52.5 17.5q17.5 17.5 17.5 59.5q0 42 -17.5 59.5q-17.5 17.5 -52.5 17.5q-36 0 -53 -17.5q-17 -17.5 -17 -59.5q0 -42 17 -59.5q17 -17.5 53 -17.5zt0 0zM630 -7q-170 0 -170 167q0 81 43.5 124q43.5 43 126.5 43q170 0 170 -167q0 -81 -43.5 -124q-43.5 -43 -126.5 -43zt0 0zM630 83q35 0 52.5 17.5q17.5 17.5 17.5 59.5q0 42 -17.5 59.5q-17.5 17.5 -52.5 17.5q-36 0 -53 -17.5q-17 -17.5 -17 -59.5q0 -42 17 -59.5t53 -17.5z" />
<glyph unicode="&#38;" horiz-adv-x="800" d="M310 -14q-60 0 -105.5 15.5q-45.5 15.5 -76.5 43q-31 27.5 -47 67q-16 39.5 -16 87.5q0 72 35.5 126.5q35.5 54.5 100.5 89.5q-18 34 -28.5 70q-10.5 36 -10.5 70q0 79 47 119q47 40 128 40q53 0 87.5 -12q34.5 -12 55 -32.5q20.5 -20.5 28.5 -47.5q8 -27 8 -57q0 -36 -13.5 -64.5q-13.5 -28.5 -36.5 -51.5q-23 -23 -53.5 -41q-30.5 -18 -64.5 -33q31 -51 66.5 -92.5q35.5 -41.5 85.5 -77.5q35 52 54.5 124.5q19.5 72.5 20.5 160.5l128 0q0 -89 -27 -177.5q-27 -88.5 -76 -160.5q30 -13 62.5 -21.5q32.5 -8.5 62.5 -9.5l0 -135q-55 0 -113 20q-58 20 -104 54q-43 -37 -94 -55.5q-51 -18.5 -104 -18.5zt0 0zM321 107q26 0 48 7.5q22 7.5 39 20.5q-49 42 -86.5 89.5q-37.5 47.5 -65.5 99.5q-28 -16 -42 -43q-14 -27 -14 -59q0 -55 30.5 -85q30.5 -30 90.5 -30zt0 0zM337 606q-59 0 -59 -66q0 -17 5.5 -36.5q5.5 -19.5 16.5 -39.5q45 20 69.5 40.5q24.5 20.5 24.5 51.5q0 23 -12.5 36.5t-44.5 13.5z" />
<glyph unicode="&#39;" horiz-adv-x="270" d="M70 700h130v-280l-130 0z" />
<glyph unicode="&#40;" horiz-adv-x="380" d="M60 290q0 77 15.5 144q15.5 67 43.5 126.5q28 59.5 68 112.5q40 53 89 101l84 -74q-39 -49 -68.5 -97q-29.5 -48 -49 -98.5q-19.5 -50.5 -29 -103.5q-9.5 -53 -9.5 -111q0 -116 38.5 -214.5q38.5 -98.5 117.5 -195.5l-84 -74q-49 48 -89 101q-40 53 -68 112.5q-28 59.5 -43.5 126.5t-15.5 144z" />
<glyph unicode="&#41;" horiz-adv-x="380" d="M320 290q0 -77 -15.5 -144q-15.5 -67 -43.5 -126.5q-28 -59.5 -68 -112.5q-40 -53 -89 -101l-84 74q79 97 117.5 195.5q38.5 98.5 38.5 214.5q0 58 -9.5 111q-9.5 53 -29 103.5q-19.5 50.5 -49 98.5q-29.5 48 -68.5 97l84 74q49 -48 89 -101q40 -53 68 -112.5q28 -59.5 43.5 -126.5t15.5 -144z" />
<glyph unicode="&#42;" horiz-adv-x="500" d="M92 356l96 112l-133 29l31 115l127 -63l-18 151h111l-18 -151l126 63l31 -115l-133 -29l96 -112l-90 -66l-68 131l-68 -131z" />
<glyph unicode="&#43;" horiz-adv-x="600" d="M85 420h150v150h130v-150h150v-130h-150v-150h-130v150l-150 0z" />
<glyph unicode="&#44;" horiz-adv-x="320" d="M45 -110q47 11 77.5 41q30.5 30 35.5 62q-45 0 -69 24q-24 24 -24 71q0 95 95 95q58 0 81.5 -34q23.5 -34 23.5 -97q0 -48 -14.5 -88q-14.5 -40 -38 -71.5q-23.5 -31.5 -54 -53.5q-30.5 -22 -63.5 -33z" />
<glyph unicode="&#45;" horiz-adv-x="400" d="M35 355h330v-130l-330 0z" />
<glyph unicode="&#46;" horiz-adv-x="320" d="M160 -7q-95 0 -95 95q0 95 95 95q95 0 95 -95q0 -95 -95 -95z" />
<glyph unicode="&#47;" horiz-adv-x="400" d="M264 760h136l-264 -940l-136 0z" />
<glyph unicode="&#48;" horiz-adv-x="570" d="M285 -14q-57 0 -102.5 19q-45.5 19 -77 61.5q-31.5 42.5 -48.5 112q-17 69.5 -17 171.5q0 103 16 173q16 70 47.5 112.5q31.5 42.5 77 60.5q45.5 18 104.5 18q61 0 106.5 -17.5q45.5 -17.5 76.5 -59.5q31 -42 46.5 -112q15.5 -70 15.5 -175q0 -104 -16 -173.5q-16 -69.5 -47.5 -112q-31.5 -42.5 -77 -60.5q-45.5 -18 -104.5 -18zt0 0zM285 132q21 0 36.5 7.5q15.5 7.5 26 30.5q10.5 23 15.5 66q5 43 5 114q0 70 -5.5 113q-5.5 43 -16 66.5q-10.5 23.5 -26 31q-15.5 7.5 -35.5 7.5q-20 0 -35.5 -7.5q-15.5 -7.5 -26 -31q-10.5 -23.5 -16 -66.5q-5.5 -43 -5.5 -113q0 -69 6 -111.5q6 -42.5 17.5 -66q11.5 -23.5 26.5 -32t33 -8.5z" />
<glyph unicode="&#49;" horiz-adv-x="570" d="M70 130h174v396l-174 -116v144l220 146h110v-570h130v-130l-460 0z" />
<glyph unicode="&#50;" horiz-adv-x="570" d="M40 103q53 48 109 91.5q56 43.5 102.5 86q46.5 42.5 76 86q29.5 43.5 29.5 91.5q0 110 -117 110q-56 0 -105.5 -19.5q-49.5 -19.5 -84.5 -52.5l0 172q38 20 95 33q57 13 124 13q72 0 120 -16.5q48 -16.5 77 -45q29 -28.5 41 -67q12 -38.5 12 -83.5q0 -56 -19.5 -103.5q-19.5 -47.5 -53.5 -91q-34 -43.5 -81.5 -84.5q-47.5 -41 -102.5 -83l258 0v-140l-480 0z" />
<glyph unicode="&#51;" horiz-adv-x="570" d="M162 417h65q64 0 86 20q22 20 22 64q0 17 -4.5 30q-4.5 13 -16.5 21.5q-12 8.5 -33.5 13q-21.5 4.5 -54.5 4.5q-49 0 -97 -16.5q-48 -16.5 -84 -41.5l0 156q22 9 49.5 17q27.5 8 57 14q29.5 6 58.5 9q29 3 56 3q71 0 116.5 -12.5q45.5 -12.5 71.5 -36q26 -23.5 36 -56.5q10 -33 10 -75q0 -130 -124 -168q77 -11 110.5 -53.5q33.5 -42.5 33.5 -109.5q0 -49 -13.5 -88q-13.5 -39 -45 -66.5q-31.5 -27.5 -83.5 -42.5q-52 -15 -129 -15q-57 0 -114.5 12q-57.5 12 -99.5 32l0 164q37 -28 88.5 -46.5q51.5 -18.5 104.5 -18.5q39 0 64 5.5q25 5.5 38.5 16q13.5 10.5 18.5 26q5 15.5 5 35.5q0 18 -4.5 32.5q-4.5 14.5 -17.5 24.5q-13 10 -35 15q-22 5 -58 5l-77 0z" />
<glyph unicode="&#52;" horiz-adv-x="570" d="M324 155h-309v89l268 456h197v-405h75v-140h-75v-155h-156zM323 295v245l-139 -245z" />
<glyph unicode="&#53;" horiz-adv-x="570" d="M89 700h411v-140h-294l-8 -116q18 3 46.5 4.5q28.5 1.5 57.5 1.5q64 0 107.5 -15q43.5 -15 70.5 -43q27 -28 38.5 -68.5q11.5 -40.5 11.5 -91.5q0 -57 -13.5 -102.5q-13.5 -45.5 -45.5 -77.5q-32 -32 -85.5 -49q-53.5 -17 -134.5 -17q-45 0 -96 9q-51 9 -95 26l0 158q13 -9 32.5 -18.5q19.5 -9.5 43.5 -17q24 -7.5 52 -12.5q28 -5 57 -5q70 0 96.5 27q26.5 27 26.5 79q0 25 -5.5 43.5q-5.5 18.5 -20 30.5q-14.5 12 -40.5 18q-26 6 -67 6q-23 0 -47 -1.5q-24 -1.5 -46.5 -3.5q-22.5 -2 -42 -4.5q-19.5 -2.5 -32.5 -5.5z" />
<glyph unicode="&#54;" horiz-adv-x="570" d="M300 -14q-73 0 -122.5 22.5q-49.5 22.5 -80 66q-30.5 43.5 -44 107q-13.5 63.5 -13.5 146.5q0 190 73 288q73 98 234 98q45 0 83 -7.5q38 -7.5 71 -19.5l0 -157q-24 17 -62 31q-38 14 -95 14q-33 0 -63 -12q-30 -12 -53.5 -36q-23.5 -24 -37 -60.5q-13.5 -36.5 -13.5 -85.5v-22q56 98 166 98q101 0 149 -58q48 -58 48 -161q0 -130 -61 -191q-61 -61 -179 -61zt0 0zM293 115q38 0 63 27q25 27 25 87q0 61 -20.5 87q-20.5 26 -64.5 26q-45 0 -71 -28q-26 -28 -26 -85q0 -23 6 -43.5q6 -20.5 18 -36q12 -15.5 29.5 -25t40.5 -9.5z" />
<glyph unicode="&#55;" horiz-adv-x="570" d="M356 560h-326v140h500v-90l-245 -610l-167 0z" />
<glyph unicode="&#56;" horiz-adv-x="570" d="M285 -14q-134 0 -192 54.5q-58 54.5 -58 153.5q0 32 6 60q6 28 20.5 50.5q14.5 22.5 38 39.5q23.5 17 59.5 28q-60 19 -84.5 55q-24.5 36 -24.5 101q0 43 13.5 77.5q13.5 34.5 42 58.5q28.5 24 73 37q44.5 13 106.5 13q120 0 177.5 -45q57.5 -45 57.5 -132q0 -60 -23 -101.5q-23 -41.5 -85 -63.5q36 -9 60 -24q24 -15 38 -37q14 -22 19.5 -50q5.5 -28 5.5 -64q0 -47 -14.5 -86q-14.5 -39 -45.5 -67q-31 -28 -78 -43q-47 -15 -112 -15zt0 0zM285 116q38 0 63 24q25 24 25 78q0 49 -23 73q-23 24 -65 24q-42 0 -65 -26.5q-23 -26.5 -23 -71.5q0 -56 24.5 -78.5q24.5 -22.5 63.5 -22.5zt0 0zM285 415q41 0 62 22.5q21 22.5 21 64.5q0 46 -20.5 64q-20.5 18 -62.5 18q-41 0 -62 -20q-21 -20 -21 -64q0 -42 22.5 -63.5t60.5 -21.5z" />
<glyph unicode="&#57;" horiz-adv-x="570" d="M222 -14q-41 0 -80 8.5q-39 8.5 -72 20.5l0 157q24 -17 61 -32q37 -15 94 -15q33 0 63.5 11.5q30.5 11.5 53.5 35.5q23 24 37 60.5q14 36.5 14 86.5v22q-28 -49 -68 -73.5q-40 -24.5 -97 -24.5q-101 0 -149.5 58.5q-48.5 58.5 -48.5 160.5q0 130 62 191q62 61 178 61q72 0 122 -22.5q50 -22.5 80.5 -66q30.5 -43.5 44 -107q13.5 -63.5 13.5 -146.5q0 -192 -73.5 -289q-73.5 -97 -234.5 -97zt0 0zM274 358q45 0 71 26.5q26 26.5 26 85.5q0 58 -25 86.5q-25 28.5 -70 28.5q-38 0 -62.5 -27q-24.5 -27 -24.5 -87q0 -113 85 -113z" />
<glyph unicode="&#58;" horiz-adv-x="330" d="M165 337q-95 0 -95 95q0 95 95 95q95 0 95 -95q0 -95 -95 -95zt0 0zM165 -7q-95 0 -95 95q0 95 95 95q95 0 95 -95q0 -95 -95 -95z" />
<glyph unicode="&#59;" horiz-adv-x="330" d="M50 -110q47 11 77.5 41q30.5 30 35.5 62q-45 0 -69 24q-24 24 -24 71q0 95 95 95q58 0 81.5 -34q23.5 -34 23.5 -97q0 -48 -14.5 -88q-14.5 -40 -38 -71.5q-23.5 -31.5 -54 -53.5q-30.5 -22 -63.5 -33zM165 337q-95 0 -95 95q0 95 95 95q95 0 95 -95q0 -95 -95 -95z" />
<glyph unicode="&#60;" horiz-adv-x="600" d="M85 275v150l430 205v-148l-285 -127l285 -127l0 -158z" />
<glyph unicode="&#61;" horiz-adv-x="600" d="M85 305h430v-130h-430zM85 525h430v-130l-430 0z" />
<glyph unicode="&#62;" horiz-adv-x="600" d="M515 425v-150l-430 -205v148l285 127l-285 127l0 158z" />
<glyph unicode="&#63;" horiz-adv-x="480" d="M195 -7q-95 0 -95 95q0 95 95 95q95 0 95 -95q0 -95 -95 -95zt0 0zM123 240q0 43 11.5 72q11.5 29 28.5 50q17 21 37.5 36.5q20.5 15.5 37.5 30.5q17 15 28.5 33q11.5 18 11.5 45q0 32 -20 50q-20 18 -63 18q-48 0 -87 -17q-39 -17 -68 -40l0 161q30 14 73.5 24.5q43.5 10.5 106.5 10.5q115 0 167.5 -47.5q52.5 -47.5 52.5 -134.5q0 -49 -13 -82q-13 -33 -33 -56q-20 -23 -42.5 -39.5q-22.5 -16.5 -42.5 -32.5q-20 -16 -33 -35q-13 -19 -13 -47z" />
<glyph unicode="&#64;" horiz-adv-x="900" d="M466 -134q-99 0 -172.5 32q-73.5 32 -122 88q-48.5 56 -72.5 132.5q-24 76.5 -24 165.5q0 89 24.5 167q24.5 78 73 136.5q48.5 58.5 121.5 92.5q73 34 170 34q82 0 149 -26.5q67 -26.5 114 -76.5q47 -50 72.5 -122q25.5 -72 25.5 -164q0 -123 -49 -192q-49 -69 -140 -69q-54 0 -79.5 21.5q-25.5 21.5 -36.5 65.5q-11 -44 -41 -65.5q-30 -21.5 -72 -21.5q-72 0 -109 52q-37 52 -37 173q0 116 38.5 171.5q38.5 55.5 114.5 55.5q43 0 64 -20q21 -20 30 -42l9 52h102v-292q0 -34 9 -48q9 -14 28 -14q16 0 31 9q15 9 26 29q11 20 18 51.5q7 31.5 7 77.5q0 145 -68 227q-68 82 -207 82q-79 0 -135 -26q-56 -26 -92 -72q-36 -46 -53 -109q-17 -63 -17 -138q0 -63 14.5 -122.5q14.5 -59.5 49 -106q34.5 -46.5 92 -74.5q57.5 -28 144.5 -28q21 0 44.5 3q23.5 3 46 9q22.5 6 43.5 14.5q21 8.5 37 20.5l0 -99q-42 -16 -83.5 -25q-41.5 -9 -87.5 -9zt0 0zM442 158q30 0 43 27.5q13 27.5 13 79.5v54q0 57 -13.5 79.5q-13.5 22.5 -42.5 22.5q-33 0 -46.5 -29q-13.5 -29 -13.5 -100q0 -72 11.5 -103t48.5 -31z" />
<glyph unicode="&#65;" horiz-adv-x="640" d="M231 700h180l219 -700h-162l-43 150h-216l-43 -150h-156zM246 280h143l-71 250z" />
<glyph unicode="&#66;" horiz-adv-x="625" d="M305 -7q-40 0 -80 2q-40 2 -72 4q-38 3 -73 6l0 690q35 3 73 6q32 2 72 4q40 2 80 2q77 0 128 -11.5q51 -11.5 81.5 -34.5q30.5 -23 43 -58q12.5 -35 12.5 -82q0 -65 -28.5 -103q-28.5 -38 -81.5 -53q60 -8 95 -49q35 -41 35 -116q0 -53 -13.5 -92q-13.5 -39 -46.5 -64.5q-33 -25.5 -88 -38q-55 -12.5 -137 -12.5zt0 0zM428 212q0 45 -21.5 64q-21.5 19 -81.5 19h-89v-163q14 -1 29 -2q13 -1 29 -1q16 0 31 0q60 0 81.5 19q21.5 19 21.5 64zt0 0zM408 493q0 42 -20 60q-20 18 -73 18q-15 0 -29.5 -0.5q-14.5 -0.5 -25.5 -1.5q-13 -1 -24 -1l0 -153h79q53 0 73 18t20 60z" />
<glyph unicode="&#67;" horiz-adv-x="575" d="M365 -14q-84 0 -145.5 20q-61.5 20 -101.5 64q-40 44 -59 114q-19 70 -19 171q0 95 20 163q20 68 60 111.5q40 43.5 101 64q61 20.5 144 20.5q35 0 67 -5.5q32 -5.5 56 -12.5q28 -8 52 -17l0 -156q-29 18 -69.5 31.5q-40.5 13.5 -100.5 13.5q-43 0 -74.5 -11q-31.5 -11 -52.5 -36q-21 -25 -31 -65.5q-10 -40.5 -10 -100.5q0 -63 10 -106q10 -43 31 -69q21 -26 52.5 -37q31.5 -11 74.5 -11q60 0 103 16q43 16 67 34l0 -156q-21 -11 -48 -20q-23 -8 -55.5 -14t-71.5 -6z" />
<glyph unicode="&#68;" horiz-adv-x="680" d="M290 -7q-34 0 -71 2q-37 2 -68 4q-36 3 -71 6l0 690q34 3 72 6q32 2 71 4q39 2 77 2q176 0 258 -83.5q82 -83.5 82 -268.5q0 -183 -88 -272.5q-88 -89.5 -262 -89.5zt0 0zM478 355q0 112 -42.5 159q-42.5 47 -130.5 47q-11 0 -23.5 -0.5q-12.5 -0.5 -22.5 -1.5q-12 -1 -23 -2l0 -414q9 -1 20 -2q9 -1 19 -1.5q10 -0.5 20 -0.5q91 0 137 50t46 166z" />
<glyph unicode="&#69;" horiz-adv-x="575" d="M80 700h450v-140h-294v-140h254v-130h-254v-150h294v-140l-450 0z" />
<glyph unicode="&#70;" horiz-adv-x="545" d="M80 700h430v-140h-274v-160h244v-140h-244v-260l-156 0z" />
<glyph unicode="&#71;" horiz-adv-x="650" d="M370 -14q-86 0 -148.5 20q-62.5 20 -103 63.5q-40.5 43.5 -59.5 113.5q-19 70 -19 171q0 96 20 164q20 68 60.5 111.5q40.5 43.5 103 64q62.5 20.5 146.5 20.5q42 0 75 -5.5q33 -5.5 56 -12.5q27 -8 49 -17l0 -156q-30 17 -76.5 31q-46.5 14 -103.5 14q-43 0 -74.5 -11q-31.5 -11 -52.5 -36q-21 -25 -31 -65.5q-10 -40.5 -10 -100.5q0 -63 10 -106q10 -43 31 -69q21 -26 52.5 -37q31.5 -11 74.5 -11q26 0 42.5 3q16.5 3 31.5 7l0 123h-94v130h240v-355q-31 -17 -86 -35.5t-134 -18.5z" />
<glyph unicode="&#72;" horiz-adv-x="720" d="M80 700h156v-273h248v273h156v-700h-156v287h-248v-287l-156 0z" />
<glyph unicode="&#73;" horiz-adv-x="330" d="M87 700h156v-700l-156 0z" />
<glyph unicode="&#74;" horiz-adv-x="420" d="M140 -14q-26 0 -47.5 2q-21.5 2 -36.5 5q-18 4 -31 8l0 156q11 -8 24 -13q11 -5 26.5 -8.5q15.5 -3.5 34.5 -3.5q22 0 37 4.5q15 4.5 24.5 16q9.5 11.5 13.5 31.5q4 20 4 51v465h156v-465q0 -72 -11 -120q-11 -48 -35.5 -76.5q-24.5 -28.5 -63.5 -40.5t-95 -12z" />
<glyph unicode="&#75;" horiz-adv-x="655" d="M286 285h-50v-285h-156v700h156v-275h50l154 275h180l-201 -342l221 -358l-186 0z" />
<glyph unicode="&#76;" horiz-adv-x="530" d="M80 700h156v-560h274v-140l-430 0z" />
<glyph unicode="&#77;" horiz-adv-x="850" d="M80 700h200l148 -385l148 385h194v-700h-150v390q0 30 1 50q1 20 4 50l-4 0q-5 -15 -9 -26.5q-4 -11.5 -7.5 -23q-3.5 -11.5 -8 -23.5q-4.5 -12 -10.5 -27l-96 -250h-130l-96 250q-6 15 -10.5 27q-4.5 12 -8 23.5q-3.5 11.5 -7.5 23q-4 11.5 -9 26.5l-4 0q2 -30 3.5 -50q1.5 -20 1.5 -50v-390l-150 0z" />
<glyph unicode="&#78;" horiz-adv-x="740" d="M80 700h188l184 -350q12 -23 21.5 -44.5q9.5 -21.5 17.5 -38.5q8 -20 15 -37l2 0q-1 17 -2 37q-1 17 -1.5 38.5q-0.5 21.5 -0.5 44.5v350h156v-700h-188l-184 350q-12 23 -22 44q-10 21 -17 38q-9 19 -15 38l-2 0q1 -19 2 -38q1 -17 1.5 -38q0.5 -21 0.5 -44v-350l-156 0z" />
<glyph unicode="&#79;" horiz-adv-x="710" d="M355 -14q-79 0 -138 20.5q-59 20.5 -98.5 64.5q-39.5 44 -59 113q-19.5 69 -19.5 166q0 190 80.5 277q80.5 87 234.5 87q81 0 140 -20q59 -20 98 -63.5q39 -43.5 58 -112.5q19 -69 19 -168q0 -95 -20.5 -164q-20.5 -69 -60 -113.5q-39.5 -44.5 -98.5 -65.5q-59 -21 -136 -21zt0 0zM355 126q38 0 67 11q29 11 48 36.5q19 25.5 28.5 68.5q9.5 43 9.5 108q0 64 -9.5 107.5q-9.5 43.5 -29 69q-19.5 25.5 -48 36.5q-28.5 11 -66.5 11q-38 0 -66.5 -11q-28.5 -11 -48 -36.5q-19.5 -25.5 -29 -69q-9.5 -43.5 -9.5 -107.5q0 -65 9.5 -108q9.5 -43 29 -68.5q19.5 -25.5 48 -36.5t66.5 -11z" />
<glyph unicode="&#80;" horiz-adv-x="620" d="M80 695q34 3 72 6q32 2 71 4q39 2 77 2q77 0 130.5 -14.5q53.5 -14.5 86.5 -45q33 -30.5 48 -77.5q15 -47 15 -113q0 -132 -66.5 -196q-66.5 -64 -213.5 -64q-11 0 -22.5 0q-11.5 0 -20.5 1q-11 0 -21 1l0 -199h-156zM418 457q0 56 -25.5 80q-25.5 24 -92.5 24q-11 0 -22.5 -0.5q-11.5 -0.5 -20.5 -1.5q-11 -1 -21 -2l0 -212q10 -1 21 -1q9 -1 20.5 -1q11.5 0 22.5 0q67 0 92.5 25t25.5 89z" />
<glyph unicode="&#81;" horiz-adv-x="710" d="M331 -13q-73 3 -127.5 25q-54.5 22 -91 66q-36.5 44 -54.5 111.5q-18 67.5 -18 160.5q0 190 80.5 277q80.5 87 234.5 87q81 0 140 -20q59 -20 98 -63.5q39 -43.5 58 -112.5q19 -69 19 -168q0 -140 -43 -223q-43 -83 -127 -117l124 -170h-186zM355 126q38 0 67 11q29 11 48 36.5q19 25.5 28.5 68.5q9.5 43 9.5 108q0 64 -9.5 107.5q-9.5 43.5 -29 69q-19.5 25.5 -48 36.5q-28.5 11 -66.5 11q-38 0 -66.5 -11q-28.5 -11 -48 -36.5q-19.5 -25.5 -29 -69q-9.5 -43.5 -9.5 -107.5q0 -65 9.5 -108q9.5 -43 29 -68.5q19.5 -25.5 48 -36.5t66.5 -11z" />
<glyph unicode="&#82;" horiz-adv-x="640" d="M315 229h-5h-74v-229h-156v695q34 3 72 6q32 2 71 4q39 2 77 2q75 0 126.5 -13.5q51.5 -13.5 83.5 -42q32 -28.5 46 -72q14 -43.5 14 -104.5q0 -88 -24.5 -141q-24.5 -53 -81.5 -79l146 -255h-172zM408 465q0 51 -22.5 73.5q-22.5 22.5 -75.5 22.5q-15 0 -29 -0.5q-14 -0.5 -25 -1.5q-13 -1 -24 -2l0 -188h78q53 0 75.5 22.5t22.5 73.5z" />
<glyph unicode="&#83;" horiz-adv-x="580" d="M285 -14q-71 0 -127.5 14q-56.5 14 -92.5 35l0 166q12 -11 32 -23q20 -12 46.5 -22.5q26.5 -10.5 59.5 -17q33 -6.5 72 -6.5q55 0 76.5 17q21.5 17 21.5 46q0 33 -23.5 51.5q-23.5 18.5 -59 32.5q-35.5 14 -76.5 28q-41 14 -76.5 37.5q-35.5 23.5 -59 61.5q-23.5 38 -23.5 99q0 100 59.5 154.5q59.5 54.5 190.5 54.5q62 0 114.5 -9.5q52.5 -9.5 85.5 -25.5l0 -166q-35 26 -86 40.5q-51 14.5 -104 14.5q-29 0 -48 -3.5q-19 -3.5 -30 -10.5q-11 -7 -15.5 -17q-4.5 -10 -4.5 -22q0 -30 23.5 -47q23.5 -17 59 -30q35.5 -13 76.5 -27.5q41 -14.5 76.5 -38.5q35.5 -24 59 -63.5q23.5 -39.5 23.5 -103.5q0 -107 -60 -163t-190 -56z" />
<glyph unicode="&#84;" horiz-adv-x="580" d="M212 560h-187v140h530v-140h-187v-560l-156 0z" />
<glyph unicode="&#85;" horiz-adv-x="670" d="M335 -14q-69 0 -119 16q-50 16 -82.5 51q-32.5 35 -48 91q-15.5 56 -15.5 136v420h156v-405q0 -50 6 -81.5q6 -31.5 19 -49.5q13 -18 34 -25q21 -7 50 -7q30 0 51 6.5q21 6.5 33.5 24.5q12.5 18 18.5 50q6 32 6 82v405h156v-420q0 -79 -16 -135q-16 -56 -48.5 -91q-32.5 -35 -82.5 -51.5t-118 -16.5z" />
<glyph unicode="&#86;" horiz-adv-x="620" d="M10 700h168l140 -520l130 520h162l-195 -700l-200 0z" />
<glyph unicode="&#87;" horiz-adv-x="900" d="M20 700h168l64 -380q5 -30 7.5 -50q2.5 -20 6.5 -50l4 0q4 30 7 50q3 20 9 50l75 380h180l76 -380q6 -30 9.5 -50q3.5 -20 8.5 -50l4 0q3 30 6 50q3 20 8 50l65 380h162l-130 -700h-200l-80 400q-4 19 -7.5 37q-3.5 18 -5.5 32q-4 17 -6 31l-4 0q-2 -14 -5 -31q-2 -14 -5.5 -32q-3.5 -18 -7.5 -37l-79 -400l-200 0z" />
<glyph unicode="&#88;" horiz-adv-x="630" d="M210 357l-185 343h182l110 -218l110 218h178l-185 -340l195 -360h-186l-116 235l-118 -235l-180 0z" />
<glyph unicode="&#89;" horiz-adv-x="610" d="M232 250l-222 450h180l121 -270l115 270h174l-212 -450v-250l-156 0z" />
<glyph unicode="&#90;" horiz-adv-x="590" d="M40 90l295 470h-285v140h490v-90l-295 -470h305v-140l-510 0z" />
<glyph unicode="&#91;" horiz-adv-x="380" d="M80 760h280v-124h-140v-692h140v-124l-280 0z" />
<glyph unicode="&#92;" horiz-adv-x="400" d="M0 760h140l260 -940l-140 0z" />
<glyph unicode="&#93;" horiz-adv-x="380" d="M20 -56h140v692h-140v124h280v-940l-280 0z" />
<glyph unicode="&#94;" horiz-adv-x="600" d="M240 700h120l175 -350h-118l-119 250l-119 -250l-114 0z" />
<glyph unicode="&#95;" horiz-adv-x="420" d="M0 -90h420v-90l-420 0z" />
<glyph unicode="&#96;" horiz-adv-x="300" d="M10 780h192l88 -160l-122 0z" />
<glyph unicode="&#97;" horiz-adv-x="535" d="M183 -14q-75 0 -114 40.5q-39 40.5 -39 123.5q0 43 11 75q11 32 36 53q25 21 65 31.5q40 10.5 98 10.5h90v27q0 40 -20 56.5q-20 16.5 -75 16.5q-48 0 -91.5 -12q-43.5 -12 -68.5 -27l0 144q32 12 80.5 20.5q48.5 8.5 106.5 8.5q62 0 103.5 -10.5q41.5 -10.5 67 -34q25.5 -23.5 36.5 -62q11 -38.5 11 -94.5v-353h-135l-5 80q-13 -38 -52 -66q-39 -28 -105 -28zt0 0zM245 110q39 0 62 24q23 24 23 71v25h-70q-43 0 -59.5 -15q-16.5 -15 -16.5 -50q0 -55 61 -55z" />
<glyph unicode="&#98;" horiz-adv-x="590" d="M355 -14q-32 0 -55.5 7.5q-23.5 7.5 -41 19.5q-17.5 12 -29 27q-11.5 15 -19.5 30l-5 -70h-145v760h150v-295q19 37 57 63q38 26 103 26q50 0 86 -15q36 -15 59 -48.5q23 -33.5 34 -86.5q11 -53 11 -129q0 -154 -49.5 -221.5q-49.5 -67.5 -155.5 -67.5zt0 0zM308 120q24 0 42.5 7q18.5 7 31 24.5q12.5 17.5 18.5 47.5q6 30 6 76q0 42 -6 70q-6 28 -18.5 44.5q-12.5 16.5 -30.5 23.5q-18 7 -42 7q-48 0 -73.5 -29q-25.5 -29 -25.5 -98v-46q0 -69 25.5 -98t72.5 -29z" />
<glyph unicode="&#99;" horiz-adv-x="475" d="M290 -14q-68 0 -117.5 15.5q-49.5 15.5 -81 50q-31.5 34.5 -46.5 89.5q-15 55 -15 134q0 145 64.5 212q64.5 67 195.5 67q35 0 64 -5q29 -5 49 -10q24 -6 42 -14l0 -154q-25 20 -56.5 34.5q-31.5 14.5 -78.5 14.5q-66 0 -96 -32.5q-30 -32.5 -30 -112.5q0 -86 32 -120.5q32 -34.5 104 -34.5q38 0 74.5 13.5q36.5 13.5 55.5 32.5l0 -144q-19 -10 -44 -18q-21 -7 -51 -12.5t-65 -5.5z" />
<glyph unicode="&#100;" horiz-adv-x="590" d="M380 75q-8 -15 -21 -31q-13 -16 -32.5 -28.5q-19.5 -12.5 -44.5 -21q-25 -8.5 -57 -8.5q-51 0 -88 15.5q-37 15.5 -60.5 50q-23.5 34.5 -35 89.5q-11.5 55 -11.5 134q0 148 49 213.5q49 65.5 156 65.5q54 0 89.5 -23q35.5 -23 55.5 -61l0 290h150v-760h-145zM184 275q0 -46 6 -76q6 -30 18.5 -47.5q12.5 -17.5 30.5 -24.5q18 -7 42 -7q48 0 73.5 29q25.5 29 25.5 98v46q0 69 -25.5 98q-25.5 29 -72.5 29q-24 0 -42.5 -7q-18.5 -7 -31 -23.5q-12.5 -16.5 -18.5 -44.5t-6 -70z" />
<glyph unicode="&#101;" horiz-adv-x="550" d="M290 -14q-72 0 -121.5 18q-49.5 18 -80 54.5q-30.5 36.5 -44.5 91.5q-14 55 -14 130q0 138 65 206q65 68 185 68q67 0 112.5 -17.5q45.5 -17.5 74 -50.5q28.5 -33 41 -79.5q12.5 -46.5 12.5 -104.5v-72h-340q4 -64 34 -92q30 -28 96 -28q26 0 52.5 4.5q26.5 4.5 50.5 12.5q24 8 44 19q20 11 33 23l0 -134q-34 -21 -79.5 -35q-45.5 -14 -120.5 -14zt0 0zM280 440q-49 0 -72.5 -28q-23.5 -28 -27.5 -92l190 0q0 61 -19 90.5t-71 29.5z" />
<glyph unicode="&#102;" horiz-adv-x="400" d="M105 410h-80v130h80v47q0 48 9 82q9 34 29.5 56q20.5 22 53.5 32q33 10 82 10q31 0 53.5 -3q22.5 -3 42.5 -7l0 -134q-7 3 -22.5 6.5q-15.5 3.5 -38.5 3.5q-29 0 -44 -17q-15 -17 -15 -48v-28h120v-130h-120v-410l-150 0z" />
<glyph unicode="&#103;" horiz-adv-x="590" d="M255 -194q-56 0 -105 10q-49 10 -75 21l0 154q22 -16 67.5 -33.5q45.5 -17.5 117.5 -17.5q63 0 91.5 28.5q28.5 28.5 28.5 91.5v45q-8 -15 -21 -31q-13 -16 -32.5 -28.5q-19.5 -12.5 -44.5 -21q-25 -8.5 -57 -8.5q-102 0 -148.5 63q-46.5 63 -46.5 199q0 146 49 211q49 65 156 65q54 0 89.5 -23q35.5 -23 55.5 -61l5 70h145v-470q0 -72 -16.5 -122.5q-16.5 -50.5 -50.5 -82q-34 -31.5 -86 -45.5q-52 -14 -122 -14zt0 0zM280 150q48 0 74 28.5q26 28.5 26 93.5v26q0 65 -25.5 93.5q-25.5 28.5 -72.5 28.5q-49 0 -73.5 -28.5q-24.5 -28.5 -24.5 -101.5q0 -80 24.5 -110t71.5 -30z" />
<glyph unicode="&#104;" horiz-adv-x="585" d="M60 760h150v-296q22 49 61 69.5q39 20.5 88 20.5q83 0 127 -45q44 -45 44 -149v-360h-150v305q0 67 -20 91q-20 24 -65 24q-42 0 -63.5 -25.5q-21.5 -25.5 -21.5 -89.5v-305l-150 0z" />
<glyph unicode="&#105;" horiz-adv-x="290" d="M70 540h150v-540h-150zM145 620q-46 0 -67 20q-21 20 -21 60q0 40 21 60q21 20 67 20q46 0 67 -20q21 -20 21 -60q0 -40 -21 -60t-67 -20z" />
<glyph unicode="&#106;" horiz-adv-x="290" d="M70 -187q-17 0 -32 2q-15 2 -27 5q-14 3 -26 7l0 134q9 -6 20 -10q11 -4 23 -4q22 0 32 11.5q10 11.5 10 43.5v538h150v-548q0 -98 -37 -138.5q-37 -40.5 -113 -40.5zt0 0zM145 620q-46 0 -67 20q-21 20 -21 60q0 40 21 60q21 20 67 20q46 0 67 -20q21 -20 21 -60q0 -40 -21 -60t-67 -20z" />
<glyph unicode="&#107;" horiz-adv-x="555" d="M60 760h150v-415h39l110 195h166l-159 -256l174 -284h-170l-120 215h-40v-215l-150 0z" />
<glyph unicode="&#108;" horiz-adv-x="315" d="M205 -7q-79 0 -114.5 36.5q-35.5 36.5 -35.5 122.5v608h150v-578q0 -30 9.5 -41q9.5 -11 30.5 -11q8 0 15.5 2q7.5 2 14.5 4q8 3 15 6l0 -134q-11 -4 -24 -8q-11 -3 -26.5 -5t-34.5 -2z" />
<glyph unicode="&#109;" horiz-adv-x="835" d="M60 540h145l5 -80q20 48 56 71q36 23 84 23q52 0 86 -27.5q34 -27.5 47 -78.5q20 57 58 81.5q38 24.5 94 24.5q69 0 107 -42.5q38 -42.5 38 -140.5v-371h-150v330q0 52 -16 71q-16 19 -51 19q-32 0 -50 -20.5q-18 -20.5 -18 -69.5v-330h-150v330q0 52 -16 71q-16 19 -51 19q-32 0 -50 -20.5q-18 -20.5 -18 -69.5v-330l-150 0z" />
<glyph unicode="&#110;" horiz-adv-x="585" d="M60 540h145l5 -75q22 48 61 68.5q39 20.5 88 20.5q83 0 127 -45q44 -45 44 -149v-360h-150v310q0 64 -20 87q-20 23 -65 23q-42 0 -63.5 -25q-21.5 -25 -21.5 -85v-310l-150 0z" />
<glyph unicode="&#111;" horiz-adv-x="570" d="M285 -14q-128 0 -191.5 67.5q-63.5 67.5 -63.5 216.5q0 146 65 215q65 69 190 69q66 0 114 -15.5q48 -15.5 79.5 -50q31.5 -34.5 46.5 -88.5q15 -54 15 -130q0 -149 -64 -216.5q-64 -67.5 -191 -67.5zt0 0zM285 120q25 0 43.5 7.5q18.5 7.5 31.5 24.5q13 17 19.5 46q6.5 29 6.5 72q0 43 -6 72q-6 29 -19 46q-13 17 -32 24.5q-19 7.5 -44 7.5q-25 0 -44 -7.5q-19 -7.5 -31.5 -25q-12.5 -17.5 -19 -46.5q-6.5 -29 -6.5 -71q0 -43 6.5 -72q6.5 -29 19 -46q12.5 -17 31.5 -24.5t44 -7.5z" />
<glyph unicode="&#112;" horiz-adv-x="590" d="M60 540h145l5 -75q19 37 57 63q38 26 103 26q50 0 86 -15q36 -15 59 -48.5q23 -33.5 34 -86.5q11 -53 11 -129q0 -154 -49.5 -221.5q-49.5 -67.5 -155.5 -67.5q-32 0 -55.5 7.5q-23.5 7.5 -41 19.5q-17.5 12 -29 27q-11.5 15 -19.5 30l0 -250h-150zM406 275q0 42 -6 70q-6 28 -18.5 44.5q-12.5 16.5 -31 23.5q-18.5 7 -42.5 7q-47 0 -72.5 -29q-25.5 -29 -25.5 -98v-46q0 -69 25.5 -98q25.5 -29 73.5 -29q24 0 42 7q18 7 30.5 24.5q12.5 17.5 18.5 47.5t6 76z" />
<glyph unicode="&#113;" horiz-adv-x="590" d="M380 75q-8 -15 -21 -31q-13 -16 -32.5 -28.5q-19.5 -12.5 -44.5 -21q-25 -8.5 -57 -8.5q-51 0 -88 15.5q-37 15.5 -60.5 50q-23.5 34.5 -35 89.5q-11.5 55 -11.5 134q0 148 49 213.5q49 65.5 156 65.5q54 0 89.5 -23q35.5 -23 55.5 -61l5 70h145v-720h-150zM184 275q0 -46 6 -76q6 -30 18.5 -47.5q12.5 -17.5 30.5 -24.5q18 -7 42 -7q48 0 73.5 29q25.5 29 25.5 98v46q0 69 -25.5 98q-25.5 29 -72.5 29q-24 0 -42.5 -7q-18.5 -7 -31 -23.5q-12.5 -16.5 -18.5 -44.5t-6 -70z" />
<glyph unicode="&#114;" horiz-adv-x="410" d="M60 540h140l5 -80q18 49 50.5 71.5q32.5 22.5 74.5 22.5q11 0 20 -1q9 -1 16 -2q8 -2 14 -3l0 -154q-11 9 -32.5 17.5q-21.5 8.5 -47.5 8.5q-44 0 -67 -28.5q-23 -28.5 -23 -101.5v-290l-150 0z" />
<glyph unicode="&#115;" horiz-adv-x="475" d="M220 -14q-33 0 -79.5 8q-46.5 8 -90.5 26l0 144q27 -25 71.5 -39.5q44.5 -14.5 93.5 -14.5q38 0 52 11q14 11 14 34q0 23 -17.5 34.5q-17.5 11.5 -43.5 20.5q-26 9 -57 18q-31 9 -57 27q-26 18 -43.5 47q-17.5 29 -17.5 78q0 45 11 77.5q11 32.5 36 54q25 21.5 65 32q40 10.5 98 10.5q38 0 79.5 -7q41.5 -7 75.5 -19l0 -144q-34 24 -69.5 35q-35.5 11 -80.5 11q-35 0 -48 -10q-13 -10 -13 -30q0 -20 17.5 -30.5q17.5 -10.5 43.5 -19q26 -8.5 57 -18q31 -9.5 57 -28q26 -18.5 43.5 -49q17.5 -30.5 17.5 -80.5q0 -89 -49.5 -134t-165.5 -45z" />
<glyph unicode="&#116;" horiz-adv-x="435" d="M270 -7q-45 0 -76.5 10.5q-31.5 10.5 -51 33q-19.5 22.5 -28.5 58.5q-9 36 -9 87v228h-80v130h80v93l150 52v-145h140v-130h-140v-208q0 -38 12.5 -56.5q12.5 -18.5 43.5 -18.5q23 0 45 7.5q22 7.5 39 19.5l0 -134q-14 -9 -47 -18t-78 -9z" />
<glyph unicode="&#117;" horiz-adv-x="580" d="M226 -14q-80 0 -125.5 45q-45.5 45 -45.5 149v360h150v-310q0 -64 19.5 -87q19.5 -23 62.5 -23q40 0 61.5 25q21.5 25 21.5 85v310h150v-540h-145l-5 75q-22 -48 -59 -68.5t-85 -20.5z" />
<glyph unicode="&#118;" horiz-adv-x="520" d="M10 540h162l92 -370l92 370h154l-160 -540l-180 0z" />
<glyph unicode="&#119;" horiz-adv-x="760" d="M15 540h156l55 -280q3 -15 5 -29.5q2 -14.5 4 -25.5q2 -13 3 -25l2 0q1 12 3 25q2 11 4 25.5q2 14.5 5 29.5l58 280h140l61 -280q3 -15 5.5 -29.5q2.5 -14.5 4.5 -25.5q2 -13 4 -25l2 0q1 12 3 25q2 11 4.5 25.5q2.5 14.5 5.5 29.5l55 280h150l-110 -540h-180l-60 270q-4 15 -6.5 29.5q-2.5 14.5 -4.5 25.5q-3 13 -4 25l-2 0l-16 -80l-57 -270l-180 0z" />
<glyph unicode="&#120;" horiz-adv-x="540" d="M165 276l-140 264h166l81 -160l81 160h162l-140 -260l150 -280h-168l-89 180l-89 -180l-164 0z" />
<glyph unicode="&#121;" horiz-adv-x="520" d="M185 -194q-15 0 -29.5 2q-14.5 2 -25.5 5q-13 3 -25 7l0 134q11 -7 22.5 -10.5q11.5 -3.5 27.5 -3.5q19 0 33.5 11.5q14.5 11.5 20.5 48.5l-199 540h162l105 -330l79 330h154l-148 -526q-19 -67 -37 -107.5q-18 -40.5 -39 -63q-21 -22.5 -45.5 -30t-55.5 -7.5z" />
<glyph unicode="&#122;" horiz-adv-x="490" d="M35 90l225 320h-215v130h410v-90l-225 -320h225v-130l-420 0z" />
<glyph unicode="&#123;" horiz-adv-x="380" d="M300 -180q-98 0 -144 48.5q-46 48.5 -46 131.5v160q0 38 -20 59q-20 21 -50 21l0 100q30 0 50 21q20 21 20 59v170q0 83 46 126.5q46 43.5 144 43.5h70v-124h-40q-43 0 -61.5 -18.5q-18.5 -18.5 -18.5 -61.5v-136q0 -57 -18.5 -88q-18.5 -31 -71.5 -42q53 -11 71.5 -42q18.5 -31 18.5 -88v-126q0 -43 18.5 -66.5q18.5 -23.5 61.5 -23.5h40l0 -124z" />
<glyph unicode="&#124;" horiz-adv-x="300" d="M80 760h140v-940l-140 0z" />
<glyph unicode="&#125;" horiz-adv-x="380" d="M10 -56h40q43 0 61.5 18.5q18.5 18.5 18.5 61.5v136q0 57 18.5 88q18.5 31 71.5 42q-53 11 -71.5 42q-18.5 31 -18.5 88v136q0 43 -18.5 61.5q-18.5 18.5 -61.5 18.5h-40v124h70q98 0 144 -43.5q46 -43.5 46 -126.5v-170q0 -38 20 -59q20 -21 50 -21l0 -100q-30 0 -50 -21q-20 -21 -20 -59v-170q0 -83 -46 -126.5q-46 -43.5 -144 -43.5l-70 0z" />
<glyph unicode="&#126;" horiz-adv-x="600" d="M85 400q19 23 45.5 39q26.5 16 64.5 16q36 0 63 -11q27 -11 51 -24q24 -13 47 -24q23 -11 49 -11q34 0 64.5 18q30.5 18 45.5 37l0 -120q-19 -23 -45.5 -39q-26.5 -16 -64.5 -16q-36 0 -63 11q-27 11 -51 24q-24 13 -47 24q-23 11 -49 11q-34 0 -64.5 -18q-30.5 -18 -45.5 -37z" />
<glyph unicode="&#160;" horiz-adv-x="250" />
<glyph unicode="&#161;" horiz-adv-x="330" d="M165 547q95 0 95 -95q0 -95 -95 -95q-95 0 -95 95q0 95 95 95zt0 0zM245 -180h-160l15 468l130 0z" />
<glyph unicode="&#162;" horiz-adv-x="600" d="M280 -8q-50 7 -86 27q-36 20 -59 54.5q-23 34.5 -34 84.5q-11 50 -11 117q0 122 46.5 188.5q46.5 66.5 143.5 83.5l0 93h120v-88q30 -2 53 -6.5q23 -4.5 39 -9.5q18 -5 33 -11l0 -154q-25 20 -61.5 34.5q-36.5 14.5 -83.5 14.5q-37 0 -62.5 -7.5q-25.5 -7.5 -42 -25q-16.5 -17.5 -24 -45q-7.5 -27.5 -7.5 -67.5q0 -43 8 -72.5q8 -29.5 25.5 -48q17.5 -18.5 45.5 -26.5q28 -8 67 -8q19 0 40 3.5q21 3.5 40 10q19 6.5 35 15q16 8.5 25 17.5l0 -144q-16 -7 -35 -14q-17 -6 -41 -12q-24 -6 -54 -8l0 -108l-120 0z" />
<glyph unicode="&#163;" horiz-adv-x="600" d="M50 134h90v166h-90v110h90v69q0 46 13.5 89q13.5 43 43.5 75q30 32 78 51.5q48 19.5 117 19.5q39 0 79.5 -6q40.5 -6 78.5 -16l0 -133q-38 11 -67 16q-29 5 -61 5q-63 0 -94.5 -31q-31.5 -31 -31.5 -85v-54h166v-110h-166v-166h254v-134l-500 0z" />
<glyph unicode="&#164;" horiz-adv-x="600" d="M427 158q-27 -18 -60 -28q-33 -10 -68 -10q-36 0 -68.5 10q-32.5 10 -59.5 28l-63 -63l-63 63l63 63q-39 56 -39 129q0 35 10 68q10 33 28 60l-62 63l64 64l62 -63q28 19 60 29q32 10 68 10q36 0 68.5 -10.5q32.5 -10.5 60.5 -29.5l64 64l63 -63l-64 -64q39 -56 39 -128q0 -36 -10 -68q-10 -32 -29 -60l64 -63l-64 -64zM300 234q24 0 45.5 9q21.5 9 37.5 24.5q16 15.5 25 37q9 21.5 9 45.5q0 24 -9 45.5q-9 21.5 -25 37.5q-16 16 -37.5 25q-21.5 9 -45.5 9q-24 0 -45.5 -9q-21.5 -9 -37.5 -25q-16 -16 -25 -37.5q-9 -21.5 -9 -45.5q0 -24 9 -45.5q9 -21.5 25 -37q16 -15.5 37.5 -24.5t45.5 -9z" />
<glyph unicode="&#165;" horiz-adv-x="600" d="M65 360h109l-164 340h180l116 -270l110 270h174l-157 -340h112v-110h-162v-50h162v-110h-162v-90h-156v90h-162v110h162v50l-162 0z" />
<glyph unicode="&#166;" horiz-adv-x="300" d="M80 215h140v-395h-140zM80 760h140v-395l-140 0z" />
<glyph unicode="&#167;" horiz-adv-x="530" d="M233 -114q-45 0 -86 6.5q-41 6.5 -87 21.5l0 121q25 -11 45.5 -17.5q20.5 -6.5 38.5 -10.5q18 -4 35 -5.5q17 -1.5 35 -1.5q51 0 71.5 12.5q20.5 12.5 20.5 37.5q0 15 -5.5 25.5q-5.5 10.5 -17.5 19.5q-12 9 -30.5 18q-18.5 9 -44.5 20q-29 10 -58.5 25q-29.5 15 -54 36q-24.5 21 -40 49q-15.5 28 -15.5 66q0 41 20.5 74q20.5 33 58.5 56q-31 22 -42.5 48.5q-11.5 26.5 -11.5 63.5q0 32 12.5 61.5q12.5 29.5 39.5 52q27 22.5 69 36q42 13.5 101 13.5q54 0 94 -9.5q40 -9.5 69 -17.5l0 -117q-55 18 -86.5 24q-31.5 6 -57.5 6q-13 0 -27.5 -2q-14.5 -2 -26.5 -7q-12 -5 -19.5 -15.5q-7.5 -10.5 -7.5 -26.5q0 -12 3.5 -21q3.5 -9 12.5 -17q9 -8 25 -16.5q16 -8.5 42 -19.5q39 -17 72 -33q33 -16 57.5 -36q24.5 -20 38.5 -46q14 -26 14 -62q0 -44 -23 -77q-23 -33 -55 -56q25 -18 39.5 -44q14.5 -26 14.5 -66q0 -36 -13.5 -66.5q-13.5 -30.5 -42 -53.5q-28.5 -23 -72.5 -36q-44 -13 -105 -13zt0 0zM321 211q13 12 21 29q8 17 8 37q0 32 -22 52q-22 20 -64 40q-2 1 -9.5 4.5q-7.5 3.5 -16 7.5q-8.5 4 -16.5 7.5q-8 3.5 -10 4.5q-19 -15 -25.5 -32q-6.5 -17 -6.5 -31q0 -35 25 -57q25 -22 73 -42q9 -4 24.5 -11.5t18.5 -8.5z" />
<glyph unicode="&#168;" horiz-adv-x="410" d="M94 624q-45 0 -64.5 19q-19.5 19 -19.5 57q0 38 19.5 57q19.5 19 64.5 19q45 0 64.5 -19q19.5 -19 19.5 -57q0 -38 -19.5 -57q-19.5 -19 -64.5 -19zt0 0zM316 624q-45 0 -64.5 19q-19.5 19 -19.5 57q0 38 19.5 57q19.5 19 64.5 19q45 0 64.5 -19q19.5 -19 19.5 -57q0 -38 -19.5 -57t-64.5 -19z" />
<glyph unicode="&#169;" horiz-adv-x="830" d="M432 161q-102 0 -147.5 52q-45.5 52 -45.5 140q0 95 48.5 145q48.5 50 147.5 50q30 0 54.5 -4.5q24.5 -4.5 38.5 -9.5l0 -86q-17 7 -39 10.5q-22 3.5 -39 3.5q-54 0 -82.5 -24.5q-28.5 -24.5 -28.5 -81.5q0 -60 29.5 -83.5q29.5 -23.5 82.5 -23.5q19 0 39 4q20 4 39 13l0 -88q-16 -7 -40 -12q-24 -5 -57 -5zt0 0zM415 -14q-77 0 -143.5 28q-66.5 28 -115.5 77q-49 49 -77 115.5q-28 66.5 -28 143.5q0 77 28 143.5q28 66.5 77 115.5q49 49 115.5 77q66.5 28 143.5 28q77 0 143.5 -28q66.5 -28 115.5 -77q49 -49 77 -115.5q28 -66.5 28 -143.5q0 -75 -28 -141.5q-28 -66.5 -77 -116q-49 -49.5 -115.5 -78q-66.5 -28.5 -143.5 -28.5zt0 0zM415 64q60 0 112 22.5q52 22.5 90.5 61q38.5 38.5 60 90.5q21.5 52 21.5 112q0 61 -21.5 113.5q-21.5 52.5 -60 90.5q-38.5 38 -90.5 60q-52 22 -112 22q-60 0 -112 -22q-52 -22 -90.5 -60q-38.5 -38 -60 -90.5q-21.5 -52.5 -21.5 -113.5q0 -61 21.5 -113.5q21.5 -52.5 60 -90.5q38.5 -38 90.5 -60t112 -22z" />
<glyph unicode="&#170;" horiz-adv-x="370" d="M134 373q-58 0 -81 24q-23 24 -23 72q0 26 6.5 45.5q6.5 19.5 23 32q16.5 12.5 44 18.5q27.5 6 69.5 6h57v14q0 22 -12 32q-12 10 -47 10q-33 0 -64.5 -7q-31.5 -7 -46.5 -16l0 86q20 7 54 12q34 5 72 5q77 0 110.5 -26q33.5 -26 33.5 -92v-209h-91l-5 48q-9 -22 -33.5 -38.5q-24.5 -16.5 -66.5 -16.5zt0 0zM176 447q23 0 38.5 14q15.5 14 15.5 41v15h-45q-30 0 -40.5 -9q-10.5 -9 -10.5 -30q0 -16 9.5 -23.5t32.5 -7.5z" />
<glyph unicode="&#171;" horiz-adv-x="550" d="M364 505h136l-122 -213l122 -217h-140l-120 213zM154 505h136l-122 -213l122 -217h-140l-120 213z" />
<glyph unicode="&#172;" horiz-adv-x="600" d="M385 290h-300v130h430v-260l-130 0z" />
<glyph unicode="&#173;" horiz-adv-x="400" d="M35 355h330v-130l-330 0z" />
<glyph unicode="&#174;" horiz-adv-x="600" d="M50 523q0 54 18 99.5q18 45.5 51 79.5q33 34 79 53q46 19 102 19q57 0 103 -19q46 -19 78.5 -53q32.5 -34 50.5 -79.5q18 -45.5 18 -99.5q0 -53 -18 -98.5q-18 -45.5 -50.5 -79q-32.5 -33.5 -78.5 -52.5q-46 -19 -103 -19q-56 0 -102 19q-46 19 -79 52.5q-33 33.5 -51 79q-18 45.5 -18 98.5zt0 0zM111 523q0 -41 13.5 -75.5q13.5 -34.5 38 -60q24.5 -25.5 59.5 -40q35 -14.5 78 -14.5q43 0 78.5 14.5q35.5 14.5 60 40q24.5 25.5 38 60q13.5 34.5 13.5 75.5q0 42 -13.5 77q-13.5 35 -38 60.5q-24.5 25.5 -60 39.5q-35.5 14 -78.5 14q-43 0 -78 -14q-35 -14 -59.5 -39.5q-24.5 -25.5 -38 -60.5q-13.5 -35 -13.5 -77zt0 0zM198 660h111q19 0 36.5 -4q17.5 -4 31.5 -14q14 -10 22.5 -27q8.5 -17 8.5 -43q0 -29 -13 -48.5q-13 -19.5 -33 -27.5l62 -100h-77l-51 88h-27v-88h-71zM300 540q14 0 24.5 6.5q10.5 6.5 10.5 23.5q0 19 -10 24.5q-10 5.5 -26 5.5h-32l0 -60z" />
<glyph unicode="&#175;" horiz-adv-x="320" d="M10 740h300v-100l-300 0z" />
<glyph unicode="&#176;" horiz-adv-x="400" d="M200 386q-34 0 -64 13q-30 13 -52 35q-22 22 -35 52q-13 30 -13 64q0 34 13 64q13 30 35 52q22 22 52 35q30 13 64 13q34 0 64 -13q30 -13 52 -35q22 -22 35 -52q13 -30 13 -64q0 -34 -13 -64q-13 -30 -35 -52q-22 -22 -52 -35q-30 -13 -64 -13zt0 0zM200 480q29 0 49.5 20.5q20.5 20.5 20.5 49.5q0 29 -20.5 49.5q-20.5 20.5 -49.5 20.5q-29 0 -49.5 -20.5q-20.5 -20.5 -20.5 -49.5q0 -29 20.5 -49.5t49.5 -20.5z" />
<glyph unicode="&#177;" horiz-adv-x="600" d="M85 500h150v150h130v-150h150v-130h-150v-97h-130v97h-150zM85 200h430v-130l-430 0z" />
<glyph unicode="&#178;" horiz-adv-x="450" d="M45 480l134 81q27 16 44.5 29.5q17.5 13.5 28.5 25q11 11.5 15.5 22.5q4.5 11 4.5 22q0 20 -16.5 35.5q-16.5 15.5 -64.5 15.5q-32 0 -67 -6.5q-35 -6.5 -64 -20.5l0 99q38 13 73 18.5q35 5.5 76 5.5q49 0 83.5 -10q34.5 -10 56.5 -27q22 -17 31.5 -40q9.5 -23 9.5 -50q0 -24 -8 -45q-8 -21 -26.5 -41.5q-18.5 -20.5 -48.5 -42q-30 -21.5 -74 -46.5l-50 -28v-1h212v-96l-350 0z" />
<glyph unicode="&#179;" horiz-adv-x="450" d="M113 634h75q38 0 57.5 8q19.5 8 19.5 31q0 20 -18 30q-18 10 -66 10q-36 0 -70.5 -4.5q-34.5 -4.5 -60.5 -14.5l0 93q36 12 80.5 16q44.5 4 82.5 4q51 0 84 -9.5q33 -9.5 52.5 -25q19.5 -15.5 27.5 -35.5q8 -20 8 -40q0 -40 -25.5 -62q-25.5 -22 -75.5 -37l0 -1q33 -5 54.5 -15q21.5 -10 34 -22.5q12.5 -12.5 17.5 -28q5 -15.5 5 -32.5q0 -54 -48.5 -90q-48.5 -36 -152.5 -36q-28 0 -68.5 3.5q-40.5 3.5 -80.5 15.5l0 96q38 -12 72 -16.5q34 -4.5 63 -4.5q54 0 74.5 11.5q20.5 11.5 20.5 31.5q0 25 -17.5 34.5q-17.5 9.5 -59.5 9.5l-85 0z" />
<glyph unicode="&#180;" horiz-adv-x="300" d="M100 780h190l-160 -160l-120 0z" />
<glyph unicode="&#181;" horiz-adv-x="585" d="M60 540h150v-310q0 -64 19.5 -87q19.5 -23 62.5 -23q40 0 61.5 25q21.5 25 21.5 85v310h150v-540h-145l-5 75q-22 -48 -59 -68.5q-37 -20.5 -85 -20.5q-5 0 -10.5 0.5q-5.5 0.5 -10.5 0.5l0 -167l-150 0z" />
<glyph unicode="&#182;" horiz-adv-x="570" d="M210 329q-42 0 -75.5 13q-33.5 13 -56.5 37q-23 24 -35.5 57.5q-12.5 33.5 -12.5 74.5q0 63 24.5 100.5q24.5 37.5 59 57q34.5 19.5 72 25.5q37.5 6 64.5 6h260v-880h-110v786h-80v-786l-110 0z" />
<glyph unicode="&#183;" horiz-adv-x="320" d="M160 255q-95 0 -95 95q0 95 95 95q95 0 95 -95q0 -95 -95 -95z" />
<glyph unicode="&#184;" horiz-adv-x="250" d="M100 -234q-29 0 -49.5 3.5q-20.5 3.5 -40.5 11.5l11 66q14 -5 28.5 -8q14.5 -3 31.5 -3q28 0 38.5 9q10.5 9 10.5 26q0 18 -11 27q-11 9 -40 9q-7 0 -16 -0.5q-9 -0.5 -16 -1.5l17 95h82l-7 -42q42 -1 71.5 -20.5q29.5 -19.5 29.5 -68.5q0 -48 -35.5 -75.5t-104.5 -27.5z" />
<glyph unicode="&#185;" horiz-adv-x="450" d="M214 680l-110 -60l-44 85l175 95h95v-420l-116 0z" />
<glyph unicode="&#186;" horiz-adv-x="370" d="M185 373q-81 0 -123 42q-42 42 -42 125q0 81 43 124q43 43 122 43q81 0 123 -42q42 -42 42 -125q0 -81 -43 -124q-43 -43 -122 -43zt0 0zM185 453q31 0 50 19.5q19 19.5 19 67.5q0 48 -19 67.5q-19 19.5 -50 19.5q-32 0 -50.5 -19.5q-18.5 -19.5 -18.5 -67.5q0 -48 18.5 -67.5t50.5 -19.5z" />
<glyph unicode="&#187;" horiz-adv-x="550" d="M382 288l-122 217h140l120 -213l-124 -217h-136zM172 288l-122 217h140l120 -213l-124 -217l-136 0z" />
<glyph unicode="&#188;" horiz-adv-x="950" d="M640 700h100l-440 -700h-100zM186 580l-110 -60l-44 85l175 95h95v-420h-116zM483 169l224 251h132v-247h59v-91h-59v-82h-112v82h-244zM728 327h-1l-139 -155l140 0z" />
<glyph unicode="&#189;" horiz-adv-x="950" d="M620 700h100l-440 -700h-100zM177 580l-110 -60l-44 85l175 95h95v-420h-116zM559 100l134 81q27 16 44.5 29.5q17.5 13.5 28.5 25q11 11.5 15.5 22.5q4.5 11 4.5 22q0 20 -16.5 35.5q-16.5 15.5 -64.5 15.5q-32 0 -67 -6.5q-35 -6.5 -64 -20.5l0 99q38 13 73 18.5q35 5.5 76 5.5q49 0 83.5 -10q34.5 -10 56.5 -27q22 -17 31.5 -40q9.5 -23 9.5 -50q0 -24 -8 -45q-8 -21 -26.5 -41.5q-18.5 -20.5 -48.5 -42q-30 -21.5 -74 -46.5l-50 -28v-1h212v-96l-350 0z" />
<glyph unicode="&#190;" horiz-adv-x="950" d="M660 700h100l-440 -700h-100zM502 169l224 251h132v-247h59v-91h-59v-82h-112v82h-244zM747 327h-1l-139 -155h140zM96 534h75q38 0 57.5 8q19.5 8 19.5 31q0 20 -18 30q-18 10 -66 10q-36 0 -70.5 -4.5q-34.5 -4.5 -60.5 -14.5l0 93q36 12 80.5 16q44.5 4 82.5 4q51 0 84 -9.5q33 -9.5 52.5 -25q19.5 -15.5 27.5 -35.5q8 -20 8 -40q0 -40 -25.5 -62q-25.5 -22 -75.5 -37l0 -1q33 -5 54.5 -15q21.5 -10 34 -22.5q12.5 -12.5 17.5 -28q5 -15.5 5 -32.5q0 -54 -48.5 -90q-48.5 -36 -152.5 -36q-28 0 -68.5 3.5q-40.5 3.5 -80.5 15.5l0 96q38 -12 72 -16.5q34 -4.5 63 -4.5q54 0 74.5 11.5q20.5 11.5 20.5 31.5q0 25 -17.5 34.5q-17.5 9.5 -59.5 9.5l-85 0z" />
<glyph unicode="&#191;" horiz-adv-x="480" d="M285 547q95 0 95 -95q0 -95 -95 -95q-95 0 -95 95q0 95 95 95zt0 0zM357 300q0 -43 -11.5 -72q-11.5 -29 -28.5 -50.5q-17 -21.5 -37.5 -37q-20.5 -15.5 -37.5 -32q-17 -16.5 -28.5 -36.5q-11.5 -20 -11.5 -49q0 -78 83 -78q48 0 87 17q39 17 68 40l0 -161q-30 -14 -73.5 -24.5q-43.5 -10.5 -106.5 -10.5q-115 0 -167.5 49q-52.5 49 -52.5 143q0 52 13 86.5q13 34.5 33 58.5q20 24 42.5 41q22.5 17 42.5 33.5q20 16.5 33 35.5q13 19 13 47z" />
<glyph unicode="&#192;" horiz-adv-x="640" d="M231 700h180l219 -700h-162l-43 150h-216l-43 -150h-156zM246 280h143l-71 250zM102 920h194l96 -160l-124 0z" />
<glyph unicode="&#193;" horiz-adv-x="640" d="M231 700h180l219 -700h-162l-43 150h-216l-43 -150h-156zM246 280h143l-71 250zM347 920h192l-168 -160l-122 0z" />
<glyph unicode="&#194;" horiz-adv-x="640" d="M231 700h180l219 -700h-162l-43 150h-216l-43 -150h-156zM246 280h143l-71 250zM242 920h156l122 -160h-124l-75 84l-79 -84l-122 0z" />
<glyph unicode="&#195;" horiz-adv-x="640" d="M231 700h180l219 -700h-162l-43 150h-216l-43 -150h-156zM246 280h143l-71 250zM120 770q1 32 10.5 57q9.5 25 25.5 41.5q16 16.5 36.5 25q20.5 8.5 43.5 8.5q22 0 44 -6.5q22 -6.5 47 -17.5q27 -12 40.5 -16.5q13.5 -4.5 27.5 -4.5q17 0 29 11q12 11 15 34l81 -13q-3 -61 -35.5 -96q-32.5 -35 -80.5 -35q-25 0 -44 4q-19 4 -48 18q-23 11 -37.5 17.5q-14.5 6.5 -28.5 6.5q-14 0 -27.5 -11.5q-13.5 -11.5 -17.5 -34.5z" />
<glyph unicode="&#196;" horiz-adv-x="640" d="M231 700h180l219 -700h-162l-43 150h-216l-43 -150h-156zM246 280h143l-71 250zM206 762q-45 0 -65.5 19.5q-20.5 19.5 -20.5 58.5q0 39 20.5 58.5q20.5 19.5 65.5 19.5q45 0 65.5 -19.5q20.5 -19.5 20.5 -58.5q0 -39 -20.5 -58.5q-20.5 -19.5 -65.5 -19.5zt0 0zM434 762q-45 0 -65.5 19.5q-20.5 19.5 -20.5 58.5q0 39 20.5 58.5q20.5 19.5 65.5 19.5q45 0 65.5 -19.5q20.5 -19.5 20.5 -58.5q0 -39 -20.5 -58.5t-65.5 -19.5z" />
<glyph unicode="&#197;" horiz-adv-x="640" d="M231 700h180l219 -700h-162l-43 150h-216l-43 -150h-156zM246 280h143l-71 250zM202 840q0 50 32.5 82q32.5 32 85.5 32q53 0 85.5 -32q32.5 -32 32.5 -82q0 -50 -32.5 -82q-32.5 -32 -85.5 -32q-53 0 -85.5 32q-32.5 32 -32.5 82zt0 0zM276 840q0 -21 12 -33q12 -12 32 -12q20 0 32 12q12 12 12 33q0 21 -12 33q-12 12 -32 12q-20 0 -32 -12t-12 -33z" />
<glyph unicode="&#198;" horiz-adv-x="935" d="M440 150h-198l-72 -150h-160l350 700h530v-140h-294v-140h254v-130h-254v-150h294v-140h-450zM440 280v279l-135 -279z" />
<glyph unicode="&#199;" horiz-adv-x="575" d="M335 -234q-29 0 -49.5 3.5q-20.5 3.5 -40.5 11.5l11 66q14 -5 28.5 -8q14.5 -3 31.5 -3q28 0 38.5 9q10.5 9 10.5 26q0 18 -11 27q-11 9 -40 9q-7 0 -16 -0.5q-9 -0.5 -16 -1.5l15 85q-67 7 -115.5 31q-48.5 24 -80 68.5q-31.5 44.5 -46.5 110q-15 65.5 -15 155.5q0 95 20 163q20 68 60 111.5q40 43.5 101 64q61 20.5 144 20.5q35 0 67 -5.5q32 -5.5 56 -12.5q28 -8 52 -17l0 -156q-29 18 -69.5 31.5q-40.5 13.5 -100.5 13.5q-43 0 -74.5 -11q-31.5 -11 -52.5 -36q-21 -25 -31 -65.5q-10 -40.5 -10 -100.5q0 -63 10 -106q10 -43 31 -69q21 -26 52.5 -37q31.5 -11 74.5 -11q60 0 103 16q43 16 67 34l0 -156q-19 -10 -44 -19q-21 -8 -51 -14q-30 -6 -67 -7l-4 -28q42 -1 71.5 -20.5q29.5 -19.5 29.5 -68.5q0 -48 -35.5 -75.5t-104.5 -27.5z" />
<glyph unicode="&#200;" horiz-adv-x="575" d="M80 700h450v-140h-294v-140h254v-130h-254v-150h294v-140h-450zM87 920h194l96 -160l-124 0z" />
<glyph unicode="&#201;" horiz-adv-x="575" d="M80 700h450v-140h-294v-140h254v-130h-254v-150h294v-140h-450zM332 920h192l-168 -160l-122 0z" />
<glyph unicode="&#202;" horiz-adv-x="575" d="M80 700h450v-140h-294v-140h254v-130h-254v-150h294v-140h-450zM227 920h156l122 -160h-124l-75 84l-79 -84l-122 0z" />
<glyph unicode="&#203;" horiz-adv-x="575" d="M80 700h450v-140h-294v-140h254v-130h-254v-150h294v-140h-450zM191 762q-45 0 -65.5 19.5q-20.5 19.5 -20.5 58.5q0 39 20.5 58.5q20.5 19.5 65.5 19.5q45 0 65.5 -19.5q20.5 -19.5 20.5 -58.5q0 -39 -20.5 -58.5q-20.5 -19.5 -65.5 -19.5zt0 0zM419 762q-45 0 -65.5 19.5q-20.5 19.5 -20.5 58.5q0 39 20.5 58.5q20.5 19.5 65.5 19.5q45 0 65.5 -19.5q20.5 -19.5 20.5 -58.5q0 -39 -20.5 -58.5t-65.5 -19.5z" />
<glyph unicode="&#204;" horiz-adv-x="330" d="M87 700h156v-700h-156zM-63 920h194l96 -160l-124 0z" />
<glyph unicode="&#205;" horiz-adv-x="330" d="M87 700h156v-700h-156zM202 920h192l-168 -160l-122 0z" />
<glyph unicode="&#206;" horiz-adv-x="330" d="M87 700h156v-700h-156zM87 920h156l122 -160h-124l-75 84l-79 -84l-122 0z" />
<glyph unicode="&#207;" horiz-adv-x="330" d="M87 700h156v-700h-156zM51 762q-45 0 -65.5 19.5q-20.5 19.5 -20.5 58.5q0 39 20.5 58.5q20.5 19.5 65.5 19.5q45 0 65.5 -19.5q20.5 -19.5 20.5 -58.5q0 -39 -20.5 -58.5q-20.5 -19.5 -65.5 -19.5zt0 0zM279 762q-45 0 -65.5 19.5q-20.5 19.5 -20.5 58.5q0 39 20.5 58.5q20.5 19.5 65.5 19.5q45 0 65.5 -19.5q20.5 -19.5 20.5 -58.5q0 -39 -20.5 -58.5t-65.5 -19.5z" />
<glyph unicode="&#208;" horiz-adv-x="690" d="M10 410h80v285q34 3 72 6q32 2 71 4q39 2 77 2q176 0 258 -83.5q82 -83.5 82 -268.5q0 -183 -88 -272.5q-88 -89.5 -262 -89.5q-34 0 -71 2q-37 2 -68 4q-36 3 -71 6l0 295h-80zM488 355q0 112 -42.5 159q-42.5 47 -130.5 47q-11 0 -23.5 -0.5q-12.5 -0.5 -22.5 -1.5q-12 -1 -23 -2l0 -147h121v-110h-121v-157q9 -1 20 -2q9 -1 19 -1.5q10 -0.5 20 -0.5q91 0 137 50t46 166z" />
<glyph unicode="&#209;" horiz-adv-x="740" d="M80 700h188l184 -350q12 -23 21.5 -44.5q9.5 -21.5 17.5 -38.5q8 -20 15 -37l2 0q-1 17 -2 37q-1 17 -1.5 38.5q-0.5 21.5 -0.5 44.5v350h156v-700h-188l-184 350q-12 23 -22 44q-10 21 -17 38q-9 19 -15 38l-2 0q1 -19 2 -38q1 -17 1.5 -38q0.5 -21 0.5 -44v-350h-156zM170 770q1 32 10.5 57q9.5 25 25.5 41.5q16 16.5 36.5 25q20.5 8.5 43.5 8.5q22 0 44 -6.5q22 -6.5 47 -17.5q27 -12 40.5 -16.5q13.5 -4.5 27.5 -4.5q17 0 29 11q12 11 15 34l81 -13q-3 -61 -35.5 -96q-32.5 -35 -80.5 -35q-25 0 -44 4q-19 4 -48 18q-23 11 -37.5 17.5q-14.5 6.5 -28.5 6.5q-14 0 -27.5 -11.5q-13.5 -11.5 -17.5 -34.5z" />
<glyph unicode="&#210;" horiz-adv-x="710" d="M355 -14q-79 0 -138 20.5q-59 20.5 -98.5 64.5q-39.5 44 -59 113q-19.5 69 -19.5 166q0 190 80.5 277q80.5 87 234.5 87q81 0 140 -20q59 -20 98 -63.5q39 -43.5 58 -112.5q19 -69 19 -168q0 -95 -20.5 -164q-20.5 -69 -60 -113.5q-39.5 -44.5 -98.5 -65.5q-59 -21 -136 -21zt0 0zM355 126q38 0 67 11q29 11 48 36.5q19 25.5 28.5 68.5q9.5 43 9.5 108q0 64 -9.5 107.5q-9.5 43.5 -29 69q-19.5 25.5 -48 36.5q-28.5 11 -66.5 11q-38 0 -66.5 -11q-28.5 -11 -48 -36.5q-19.5 -25.5 -29 -69q-9.5 -43.5 -9.5 -107.5q0 -65 9.5 -108q9.5 -43 29 -68.5q19.5 -25.5 48 -36.5q28.5 -11 66.5 -11zt0 0zM137 920h194l96 -160l-124 0z" />
<glyph unicode="&#211;" horiz-adv-x="710" d="M355 -14q-79 0 -138 20.5q-59 20.5 -98.5 64.5q-39.5 44 -59 113q-19.5 69 -19.5 166q0 190 80.5 277q80.5 87 234.5 87q81 0 140 -20q59 -20 98 -63.5q39 -43.5 58 -112.5q19 -69 19 -168q0 -95 -20.5 -164q-20.5 -69 -60 -113.5q-39.5 -44.5 -98.5 -65.5q-59 -21 -136 -21zt0 0zM355 126q38 0 67 11q29 11 48 36.5q19 25.5 28.5 68.5q9.5 43 9.5 108q0 64 -9.5 107.5q-9.5 43.5 -29 69q-19.5 25.5 -48 36.5q-28.5 11 -66.5 11q-38 0 -66.5 -11q-28.5 -11 -48 -36.5q-19.5 -25.5 -29 -69q-9.5 -43.5 -9.5 -107.5q0 -65 9.5 -108q9.5 -43 29 -68.5q19.5 -25.5 48 -36.5q28.5 -11 66.5 -11zt0 0zM382 920h192l-168 -160l-122 0z" />
<glyph unicode="&#212;" horiz-adv-x="710" d="M355 -14q-79 0 -138 20.5q-59 20.5 -98.5 64.5q-39.5 44 -59 113q-19.5 69 -19.5 166q0 190 80.5 277q80.5 87 234.5 87q81 0 140 -20q59 -20 98 -63.5q39 -43.5 58 -112.5q19 -69 19 -168q0 -95 -20.5 -164q-20.5 -69 -60 -113.5q-39.5 -44.5 -98.5 -65.5q-59 -21 -136 -21zt0 0zM355 126q38 0 67 11q29 11 48 36.5q19 25.5 28.5 68.5q9.5 43 9.5 108q0 64 -9.5 107.5q-9.5 43.5 -29 69q-19.5 25.5 -48 36.5q-28.5 11 -66.5 11q-38 0 -66.5 -11q-28.5 -11 -48 -36.5q-19.5 -25.5 -29 -69q-9.5 -43.5 -9.5 -107.5q0 -65 9.5 -108q9.5 -43 29 -68.5q19.5 -25.5 48 -36.5q28.5 -11 66.5 -11zt0 0zM277 920h156l122 -160h-124l-75 84l-79 -84l-122 0z" />
<glyph unicode="&#213;" horiz-adv-x="710" d="M355 -14q-79 0 -138 20.5q-59 20.5 -98.5 64.5q-39.5 44 -59 113q-19.5 69 -19.5 166q0 190 80.5 277q80.5 87 234.5 87q81 0 140 -20q59 -20 98 -63.5q39 -43.5 58 -112.5q19 -69 19 -168q0 -95 -20.5 -164q-20.5 -69 -60 -113.5q-39.5 -44.5 -98.5 -65.5q-59 -21 -136 -21zt0 0zM355 126q38 0 67 11q29 11 48 36.5q19 25.5 28.5 68.5q9.5 43 9.5 108q0 64 -9.5 107.5q-9.5 43.5 -29 69q-19.5 25.5 -48 36.5q-28.5 11 -66.5 11q-38 0 -66.5 -11q-28.5 -11 -48 -36.5q-19.5 -25.5 -29 -69q-9.5 -43.5 -9.5 -107.5q0 -65 9.5 -108q9.5 -43 29 -68.5q19.5 -25.5 48 -36.5q28.5 -11 66.5 -11zt0 0zM155 770q1 32 10.5 57q9.5 25 25.5 41.5q16 16.5 36.5 25q20.5 8.5 43.5 8.5q22 0 44 -6.5q22 -6.5 47 -17.5q27 -12 40.5 -16.5q13.5 -4.5 27.5 -4.5q17 0 29 11q12 11 15 34l81 -13q-3 -61 -35.5 -96q-32.5 -35 -80.5 -35q-25 0 -44 4q-19 4 -48 18q-23 11 -37.5 17.5q-14.5 6.5 -28.5 6.5q-14 0 -27.5 -11.5q-13.5 -11.5 -17.5 -34.5z" />
<glyph unicode="&#214;" horiz-adv-x="710" d="M355 -14q-79 0 -138 20.5q-59 20.5 -98.5 64.5q-39.5 44 -59 113q-19.5 69 -19.5 166q0 190 80.5 277q80.5 87 234.5 87q81 0 140 -20q59 -20 98 -63.5q39 -43.5 58 -112.5q19 -69 19 -168q0 -95 -20.5 -164q-20.5 -69 -60 -113.5q-39.5 -44.5 -98.5 -65.5q-59 -21 -136 -21zt0 0zM355 126q38 0 67 11q29 11 48 36.5q19 25.5 28.5 68.5q9.5 43 9.5 108q0 64 -9.5 107.5q-9.5 43.5 -29 69q-19.5 25.5 -48 36.5q-28.5 11 -66.5 11q-38 0 -66.5 -11q-28.5 -11 -48 -36.5q-19.5 -25.5 -29 -69q-9.5 -43.5 -9.5 -107.5q0 -65 9.5 -108q9.5 -43 29 -68.5q19.5 -25.5 48 -36.5q28.5 -11 66.5 -11zt0 0zM241 762q-45 0 -65.5 19.5q-20.5 19.5 -20.5 58.5q0 39 20.5 58.5q20.5 19.5 65.5 19.5q45 0 65.5 -19.5q20.5 -19.5 20.5 -58.5q0 -39 -20.5 -58.5q-20.5 -19.5 -65.5 -19.5zt0 0zM469 762q-45 0 -65.5 19.5q-20.5 19.5 -20.5 58.5q0 39 20.5 58.5q20.5 19.5 65.5 19.5q45 0 65.5 -19.5q20.5 -19.5 20.5 -58.5q0 -39 -20.5 -58.5t-65.5 -19.5z" />
<glyph unicode="&#215;" horiz-adv-x="600" d="M90 236l124 124l-124 124l86 86l124 -124l124 124l86 -86l-124 -124l124 -124l-86 -86l-124 124l-124 -124z" />
<glyph unicode="&#216;" horiz-adv-x="710" d="M355 -14q-95 0 -161 30l-42 -66l-72 50l42 67q-82 86 -82 283q0 190 80.5 277q80.5 87 234.5 87q97 0 162 -28l41 64l72 -50l-41 -65q41 -44 61 -113.5q20 -69.5 20 -171.5q0 -95 -20.5 -164q-20.5 -69 -60 -113.5q-39.5 -44.5 -98.5 -65.5q-59 -21 -136 -21zt0 0zM355 126q38 0 67 11q29 11 48 36.5q19 25.5 28.5 68.5q9.5 43 9.5 108q0 42 -4.5 74.5q-4.5 32.5 -12.5 57.5l-216 -339q31 -17 80 -17zt0 0zM202 350q0 -85 16 -133l217 339q-33 18 -80 18q-38 0 -66.5 -11q-28.5 -11 -48 -36.5q-19.5 -25.5 -29 -69t-9.5 -107.5z" />
<glyph unicode="&#217;" horiz-adv-x="670" d="M335 -14q-69 0 -119 16q-50 16 -82.5 51q-32.5 35 -48 91q-15.5 56 -15.5 136v420h156v-405q0 -50 6 -81.5q6 -31.5 19 -49.5q13 -18 34 -25q21 -7 50 -7q30 0 51 6.5q21 6.5 33.5 24.5q12.5 18 18.5 50q6 32 6 82v405h156v-420q0 -79 -16 -135q-16 -56 -48.5 -91q-32.5 -35 -82.5 -51.5q-50 -16.5 -118 -16.5zt0 0zM117 920h194l96 -160l-124 0z" />
<glyph unicode="&#218;" horiz-adv-x="670" d="M335 -14q-69 0 -119 16q-50 16 -82.5 51q-32.5 35 -48 91q-15.5 56 -15.5 136v420h156v-405q0 -50 6 -81.5q6 -31.5 19 -49.5q13 -18 34 -25q21 -7 50 -7q30 0 51 6.5q21 6.5 33.5 24.5q12.5 18 18.5 50q6 32 6 82v405h156v-420q0 -79 -16 -135q-16 -56 -48.5 -91q-32.5 -35 -82.5 -51.5q-50 -16.5 -118 -16.5zt0 0zM362 920h192l-168 -160l-122 0z" />
<glyph unicode="&#219;" horiz-adv-x="670" d="M335 -14q-69 0 -119 16q-50 16 -82.5 51q-32.5 35 -48 91q-15.5 56 -15.5 136v420h156v-405q0 -50 6 -81.5q6 -31.5 19 -49.5q13 -18 34 -25q21 -7 50 -7q30 0 51 6.5q21 6.5 33.5 24.5q12.5 18 18.5 50q6 32 6 82v405h156v-420q0 -79 -16 -135q-16 -56 -48.5 -91q-32.5 -35 -82.5 -51.5q-50 -16.5 -118 -16.5zt0 0zM257 920h156l122 -160h-124l-75 84l-79 -84l-122 0z" />
<glyph unicode="&#220;" horiz-adv-x="670" d="M335 -14q-69 0 -119 16q-50 16 -82.5 51q-32.5 35 -48 91q-15.5 56 -15.5 136v420h156v-405q0 -50 6 -81.5q6 -31.5 19 -49.5q13 -18 34 -25q21 -7 50 -7q30 0 51 6.5q21 6.5 33.5 24.5q12.5 18 18.5 50q6 32 6 82v405h156v-420q0 -79 -16 -135q-16 -56 -48.5 -91q-32.5 -35 -82.5 -51.5q-50 -16.5 -118 -16.5zt0 0zM221 762q-45 0 -65.5 19.5q-20.5 19.5 -20.5 58.5q0 39 20.5 58.5q20.5 19.5 65.5 19.5q45 0 65.5 -19.5q20.5 -19.5 20.5 -58.5q0 -39 -20.5 -58.5q-20.5 -19.5 -65.5 -19.5zt0 0zM449 762q-45 0 -65.5 19.5q-20.5 19.5 -20.5 58.5q0 39 20.5 58.5q20.5 19.5 65.5 19.5q45 0 65.5 -19.5q20.5 -19.5 20.5 -58.5q0 -39 -20.5 -58.5t-65.5 -19.5z" />
<glyph unicode="&#221;" horiz-adv-x="610" d="M232 250l-222 450h180l121 -270l115 270h174l-212 -450v-250h-156zM332 920h192l-168 -160l-122 0z" />
<glyph unicode="&#222;" horiz-adv-x="620" d="M80 700h156v-86q17 2 32 2.5q15 0.5 32 0.5q77 0 130.5 -14.5q53.5 -14.5 86.5 -45q33 -30.5 48 -77.5q15 -47 15 -113q0 -132 -66.5 -196q-66.5 -64 -213.5 -64q-17 0 -32 0.5q-15 0.5 -32 1.5l0 -109h-156zM418 367q0 56 -25.5 80q-25.5 24 -92.5 24q-17 0 -32 -0.5q-15 -0.5 -32 -2.5l0 -213q17 -1 32 -1.5q15 -0.5 32 -0.5q67 0 92.5 25t25.5 89z" />
<glyph unicode="&#223;" horiz-adv-x="615" d="M60 505q0 135 65 202q65 67 190 67q56 0 99 -14.5q43 -14.5 72 -40.5q29 -26 44 -62.5q15 -36.5 15 -81.5q0 -64 -27.5 -107.5q-27.5 -43.5 -72.5 -61.5l0 -2q60 -11 97.5 -57q37.5 -46 37.5 -134q0 -118 -53.5 -172.5q-53.5 -54.5 -166.5 -54.5q-29 0 -50.5 2q-21.5 2 -44.5 9l0 139q14 -5 32 -7.5q18 -2.5 38 -2.5q40 0 61.5 23.5q21.5 23.5 21.5 76.5q0 60 -23 84.5q-23 24.5 -74 24.5h-41v120h30q36 0 54.5 20.5q18.5 20.5 18.5 69.5q0 48 -19 68.5q-19 20.5 -59 20.5q-44 0 -66.5 -27.5q-22.5 -27.5 -22.5 -101.5v-505l-156 0z" />
<glyph unicode="&#224;" horiz-adv-x="535" d="M183 -14q-75 0 -114 40.5q-39 40.5 -39 123.5q0 43 11 75q11 32 36 53q25 21 65 31.5q40 10.5 98 10.5h90v27q0 40 -20 56.5q-20 16.5 -75 16.5q-48 0 -91.5 -12q-43.5 -12 -68.5 -27l0 144q32 12 80.5 20.5q48.5 8.5 106.5 8.5q62 0 103.5 -10.5q41.5 -10.5 67 -34q25.5 -23.5 36.5 -62q11 -38.5 11 -94.5v-353h-135l-5 80q-13 -38 -52 -66q-39 -28 -105 -28zt0 0zM245 110q39 0 62 24q23 24 23 71v25h-70q-43 0 -59.5 -15q-16.5 -15 -16.5 -50q0 -55 61 -55zt0 0zM61 780h192l88 -160l-122 0z" />
<glyph unicode="&#225;" horiz-adv-x="535" d="M183 -14q-75 0 -114 40.5q-39 40.5 -39 123.5q0 43 11 75q11 32 36 53q25 21 65 31.5q40 10.5 98 10.5h90v27q0 40 -20 56.5q-20 16.5 -75 16.5q-48 0 -91.5 -12q-43.5 -12 -68.5 -27l0 144q32 12 80.5 20.5q48.5 8.5 106.5 8.5q62 0 103.5 -10.5q41.5 -10.5 67 -34q25.5 -23.5 36.5 -62q11 -38.5 11 -94.5v-353h-135l-5 80q-13 -38 -52 -66q-39 -28 -105 -28zt0 0zM245 110q39 0 62 24q23 24 23 71v25h-70q-43 0 -59.5 -15q-16.5 -15 -16.5 -50q0 -55 61 -55zt0 0zM290 780h190l-160 -160l-120 0z" />
<glyph unicode="&#226;" horiz-adv-x="535" d="M183 -14q-75 0 -114 40.5q-39 40.5 -39 123.5q0 43 11 75q11 32 36 53q25 21 65 31.5q40 10.5 98 10.5h90v27q0 40 -20 56.5q-20 16.5 -75 16.5q-48 0 -91.5 -12q-43.5 -12 -68.5 -27l0 144q32 12 80.5 20.5q48.5 8.5 106.5 8.5q62 0 103.5 -10.5q41.5 -10.5 67 -34q25.5 -23.5 36.5 -62q11 -38.5 11 -94.5v-353h-135l-5 80q-13 -38 -52 -66q-39 -28 -105 -28zt0 0zM245 110q39 0 62 24q23 24 23 71v25h-70q-43 0 -59.5 -15q-16.5 -15 -16.5 -50q0 -55 61 -55zt0 0zM192 780h156l112 -160h-122l-67 86l-71 -86l-120 0z" />
<glyph unicode="&#227;" horiz-adv-x="535" d="M183 -14q-75 0 -114 40.5q-39 40.5 -39 123.5q0 43 11 75q11 32 36 53q25 21 65 31.5q40 10.5 98 10.5h90v27q0 40 -20 56.5q-20 16.5 -75 16.5q-48 0 -91.5 -12q-43.5 -12 -68.5 -27l0 144q32 12 80.5 20.5q48.5 8.5 106.5 8.5q62 0 103.5 -10.5q41.5 -10.5 67 -34q25.5 -23.5 36.5 -62q11 -38.5 11 -94.5v-353h-135l-5 80q-13 -38 -52 -66q-39 -28 -105 -28zt0 0zM245 110q39 0 62 24q23 24 23 71v25h-70q-43 0 -59.5 -15q-16.5 -15 -16.5 -50q0 -55 61 -55zt0 0zM80 630q2 65 33 98.5q31 33.5 78 33.5q22 0 41.5 -7.5q19.5 -7.5 44.5 -18.5q13 -6 22 -10q9 -4 16 -6.5q7 -2.5 12.5 -3.5q5.5 -1 12.5 -1q33 0 39 47l81 -13q-3 -61 -33 -96q-30 -35 -78 -35q-12 0 -22 1q-10 1 -19.5 4q-9.5 3 -20.5 7.5q-11 4.5 -25 11.5q-23 11 -35 17.5q-12 6.5 -26 6.5q-14 0 -25 -12.5q-11 -12.5 -15 -35.5z" />
<glyph unicode="&#228;" horiz-adv-x="535" d="M183 -14q-75 0 -114 40.5q-39 40.5 -39 123.5q0 43 11 75q11 32 36 53q25 21 65 31.5q40 10.5 98 10.5h90v27q0 40 -20 56.5q-20 16.5 -75 16.5q-48 0 -91.5 -12q-43.5 -12 -68.5 -27l0 144q32 12 80.5 20.5q48.5 8.5 106.5 8.5q62 0 103.5 -10.5q41.5 -10.5 67 -34q25.5 -23.5 36.5 -62q11 -38.5 11 -94.5v-353h-135l-5 80q-13 -38 -52 -66q-39 -28 -105 -28zt0 0zM245 110q39 0 62 24q23 24 23 71v25h-70q-43 0 -59.5 -15q-16.5 -15 -16.5 -50q0 -55 61 -55zt0 0zM159 624q-45 0 -64.5 19q-19.5 19 -19.5 57q0 38 19.5 57q19.5 19 64.5 19q45 0 64.5 -19q19.5 -19 19.5 -57q0 -38 -19.5 -57q-19.5 -19 -64.5 -19zt0 0zM381 624q-45 0 -64.5 19q-19.5 19 -19.5 57q0 38 19.5 57q19.5 19 64.5 19q45 0 64.5 -19q19.5 -19 19.5 -57q0 -38 -19.5 -57t-64.5 -19z" />
<glyph unicode="&#229;" horiz-adv-x="535" d="M183 -14q-75 0 -114 40.5q-39 40.5 -39 123.5q0 43 11 75q11 32 36 53q25 21 65 31.5q40 10.5 98 10.5h90v27q0 40 -20 56.5q-20 16.5 -75 16.5q-48 0 -91.5 -12q-43.5 -12 -68.5 -27l0 144q32 12 80.5 20.5q48.5 8.5 106.5 8.5q62 0 103.5 -10.5q41.5 -10.5 67 -34q25.5 -23.5 36.5 -62q11 -38.5 11 -94.5v-353h-135l-5 80q-13 -38 -52 -66q-39 -28 -105 -28zt0 0zM245 110q39 0 62 24q23 24 23 71v25h-70q-43 0 -59.5 -15q-16.5 -15 -16.5 -50q0 -55 61 -55zt0 0zM158 700q0 51 31 81.5q31 30.5 85 30.5q54 0 85 -30.5q31 -30.5 31 -81.5q0 -51 -31 -81.5q-31 -30.5 -85 -30.5q-54 0 -85 30.5q-31 30.5 -31 81.5zt0 0zM230 700q0 -20 12 -32q12 -12 32 -12q20 0 32 12q12 12 12 32q0 20 -12 32q-12 12 -32 12q-20 0 -32 -12t-12 -32z" />
<glyph unicode="&#230;" horiz-adv-x="860" d="M600 -14q-69 0 -116 18q-47 18 -77 54q-71 -72 -199 -72q-94 0 -136 40.5q-42 40.5 -42 123.5q0 43 11 75q11 32 36.5 53q25.5 21 66.5 31.5q41 10.5 101 10.5h95v27q0 40 -21 56.5q-21 16.5 -79 16.5q-51 0 -95.5 -12q-44.5 -12 -69.5 -27l0 144q32 12 81 20.5q49 8.5 111 8.5q63 0 104 -11q41 -11 66 -36q59 47 153 47q67 0 112.5 -17.5q45.5 -17.5 74 -50.5q28.5 -33 41 -79.5q12.5 -46.5 12.5 -104.5v-72h-340q4 -64 34 -92q30 -28 96 -28q26 0 52.5 4.5q26.5 4.5 50.5 12.5q24 8 44 19q20 11 33 23l0 -134q-30 -20 -77.5 -34.5q-47.5 -14.5 -122.5 -14.5zt0 0zM590 440q-49 0 -72.5 -28q-23.5 -28 -27.5 -92l190 0q0 61 -19 90.5q-19 29.5 -71 29.5zt0 0zM250 110q43 0 66.5 24q23.5 24 23.5 71v25h-75q-47 0 -64 -15q-17 -15 -17 -50q0 -27 15.5 -41t50.5 -14z" />
<glyph unicode="&#231;" horiz-adv-x="475" d="M265 -234q-29 0 -49.5 3.5q-20.5 3.5 -40.5 11.5l11 66q14 -5 28.5 -8q14.5 -3 31.5 -3q28 0 38.5 9q10.5 9 10.5 26q0 18 -11 27q-11 9 -40 9q-7 0 -16 -0.5q-9 -0.5 -16 -1.5l15 85q-51 6 -88.5 25.5q-37.5 19.5 -61.5 54q-24 34.5 -35.5 85.5q-11.5 51 -11.5 120q0 145 64.5 212q64.5 67 195.5 67q35 0 64 -5q29 -5 49 -10q24 -6 42 -14l0 -154q-25 20 -56.5 34.5q-31.5 14.5 -78.5 14.5q-66 0 -96 -32.5q-30 -32.5 -30 -112.5q0 -86 32 -120.5q32 -34.5 104 -34.5q38 0 74.5 13.5q36.5 13.5 55.5 32.5l0 -144q-17 -9 -39 -16q-19 -6 -45 -11.5q-26 -5.5 -58 -7.5l-4 -29q42 -1 71.5 -20.5q29.5 -19.5 29.5 -68.5q0 -48 -35.5 -75.5t-104.5 -27.5z" />
<glyph unicode="&#232;" horiz-adv-x="550" d="M290 -14q-72 0 -121.5 18q-49.5 18 -80 54.5q-30.5 36.5 -44.5 91.5q-14 55 -14 130q0 138 65 206q65 68 185 68q67 0 112.5 -17.5q45.5 -17.5 74 -50.5q28.5 -33 41 -79.5q12.5 -46.5 12.5 -104.5v-72h-340q4 -64 34 -92q30 -28 96 -28q26 0 52.5 4.5q26.5 4.5 50.5 12.5q24 8 44 19q20 11 33 23l0 -134q-34 -21 -79.5 -35q-45.5 -14 -120.5 -14zt0 0zM280 440q-49 0 -72.5 -28q-23.5 -28 -27.5 -92l190 0q0 61 -19 90.5q-19 29.5 -71 29.5zt0 0zM66 780h192l88 -160l-122 0z" />
<glyph unicode="&#233;" horiz-adv-x="550" d="M290 -14q-72 0 -121.5 18q-49.5 18 -80 54.5q-30.5 36.5 -44.5 91.5q-14 55 -14 130q0 138 65 206q65 68 185 68q67 0 112.5 -17.5q45.5 -17.5 74 -50.5q28.5 -33 41 -79.5q12.5 -46.5 12.5 -104.5v-72h-340q4 -64 34 -92q30 -28 96 -28q26 0 52.5 4.5q26.5 4.5 50.5 12.5q24 8 44 19q20 11 33 23l0 -134q-34 -21 -79.5 -35q-45.5 -14 -120.5 -14zt0 0zM280 440q-49 0 -72.5 -28q-23.5 -28 -27.5 -92l190 0q0 61 -19 90.5q-19 29.5 -71 29.5zt0 0zM295 780h190l-160 -160l-120 0z" />
<glyph unicode="&#234;" horiz-adv-x="550" d="M290 -14q-72 0 -121.5 18q-49.5 18 -80 54.5q-30.5 36.5 -44.5 91.5q-14 55 -14 130q0 138 65 206q65 68 185 68q67 0 112.5 -17.5q45.5 -17.5 74 -50.5q28.5 -33 41 -79.5q12.5 -46.5 12.5 -104.5v-72h-340q4 -64 34 -92q30 -28 96 -28q26 0 52.5 4.5q26.5 4.5 50.5 12.5q24 8 44 19q20 11 33 23l0 -134q-34 -21 -79.5 -35q-45.5 -14 -120.5 -14zt0 0zM280 440q-49 0 -72.5 -28q-23.5 -28 -27.5 -92l190 0q0 61 -19 90.5q-19 29.5 -71 29.5zt0 0zM197 780h156l112 -160h-122l-67 86l-71 -86l-120 0z" />
<glyph unicode="&#235;" horiz-adv-x="550" d="M290 -14q-72 0 -121.5 18q-49.5 18 -80 54.5q-30.5 36.5 -44.5 91.5q-14 55 -14 130q0 138 65 206q65 68 185 68q67 0 112.5 -17.5q45.5 -17.5 74 -50.5q28.5 -33 41 -79.5q12.5 -46.5 12.5 -104.5v-72h-340q4 -64 34 -92q30 -28 96 -28q26 0 52.5 4.5q26.5 4.5 50.5 12.5q24 8 44 19q20 11 33 23l0 -134q-34 -21 -79.5 -35q-45.5 -14 -120.5 -14zt0 0zM280 440q-49 0 -72.5 -28q-23.5 -28 -27.5 -92l190 0q0 61 -19 90.5q-19 29.5 -71 29.5zt0 0zM164 624q-45 0 -64.5 19q-19.5 19 -19.5 57q0 38 19.5 57q19.5 19 64.5 19q45 0 64.5 -19q19.5 -19 19.5 -57q0 -38 -19.5 -57q-19.5 -19 -64.5 -19zt0 0zM386 624q-45 0 -64.5 19q-19.5 19 -19.5 57q0 38 19.5 57q19.5 19 64.5 19q45 0 64.5 -19q19.5 -19 19.5 -57q0 -38 -19.5 -57t-64.5 -19z" />
<glyph unicode="&#236;" horiz-adv-x="290" d="M70 540h150v-540h-150zM-74 780h192l88 -160l-122 0z" />
<glyph unicode="&#237;" horiz-adv-x="290" d="M70 540h150v-540h-150zM175 780h190l-160 -160l-120 0z" />
<glyph unicode="&#238;" horiz-adv-x="290" d="M70 540h150v-540h-150zM67 780h156l112 -160h-122l-67 86l-71 -86l-120 0z" />
<glyph unicode="&#239;" horiz-adv-x="290" d="M70 540h150v-540h-150zM34 624q-45 0 -64.5 19q-19.5 19 -19.5 57q0 38 19.5 57q19.5 19 64.5 19q45 0 64.5 -19q19.5 -19 19.5 -57q0 -38 -19.5 -57q-19.5 -19 -64.5 -19zt0 0zM256 624q-45 0 -64.5 19q-19.5 19 -19.5 57q0 38 19.5 57q19.5 19 64.5 19q45 0 64.5 -19q19.5 -19 19.5 -57q0 -38 -19.5 -57t-64.5 -19z" />
<glyph unicode="&#240;" horiz-adv-x="585" d="M117 617l91 48q-32 15 -64 26.5q-32 11.5 -64 18.5l47 84q111 -26 192 -69l129 69l31 -62l-93 -50q84 -65 124 -161.5q40 -96.5 40 -230.5q0 -92 -23.5 -151q-23.5 -59 -61.5 -93q-38 -34 -86.5 -47q-48.5 -13 -98.5 -13q-68 0 -115.5 20.5q-47.5 20.5 -77.5 56.5q-30 36 -43.5 86.5q-13.5 50.5 -13.5 110.5q0 127 52 195.5q52 68.5 171 68.5q32 0 68 -10q36 -10 71 -43l4 2q-11 44 -42.5 82q-31.5 38 -75.5 69l-130 -69zM290 120q30 0 50.5 7.5q20.5 7.5 33 24.5q12.5 17 17.5 44q5 27 5 66q0 35 -5 59.5q-5 24.5 -17 39.5q-12 15 -32.5 22q-20.5 7 -51.5 7q-30 0 -50 -5.5q-20 -5.5 -32.5 -19.5q-12.5 -14 -18 -39q-5.5 -25 -5.5 -64q0 -78 25 -110t81 -32z" />
<glyph unicode="&#241;" horiz-adv-x="585" d="M60 540h145l5 -75q22 48 61 68.5q39 20.5 88 20.5q83 0 127 -45q44 -45 44 -149v-360h-150v310q0 64 -20 87q-20 23 -65 23q-42 0 -63.5 -25q-21.5 -25 -21.5 -85v-310h-150zM105 630q2 65 33 98.5q31 33.5 78 33.5q22 0 41.5 -7.5q19.5 -7.5 44.5 -18.5q13 -6 22 -10q9 -4 16 -6.5q7 -2.5 12.5 -3.5q5.5 -1 12.5 -1q33 0 39 47l81 -13q-3 -61 -33 -96q-30 -35 -78 -35q-12 0 -22 1q-10 1 -19.5 4q-9.5 3 -20.5 7.5q-11 4.5 -25 11.5q-23 11 -35 17.5q-12 6.5 -26 6.5q-14 0 -25 -12.5q-11 -12.5 -15 -35.5z" />
<glyph unicode="&#242;" horiz-adv-x="570" d="M285 -14q-128 0 -191.5 67.5q-63.5 67.5 -63.5 216.5q0 146 65 215q65 69 190 69q66 0 114 -15.5q48 -15.5 79.5 -50q31.5 -34.5 46.5 -88.5q15 -54 15 -130q0 -149 -64 -216.5q-64 -67.5 -191 -67.5zt0 0zM285 120q25 0 43.5 7.5q18.5 7.5 31.5 24.5q13 17 19.5 46q6.5 29 6.5 72q0 43 -6 72q-6 29 -19 46q-13 17 -32 24.5q-19 7.5 -44 7.5q-25 0 -44 -7.5q-19 -7.5 -31.5 -25q-12.5 -17.5 -19 -46.5q-6.5 -29 -6.5 -71q0 -43 6.5 -72q6.5 -29 19 -46q12.5 -17 31.5 -24.5q19 -7.5 44 -7.5zt0 0zM76 780h192l88 -160l-122 0z" />
<glyph unicode="&#243;" horiz-adv-x="570" d="M285 -14q-128 0 -191.5 67.5q-63.5 67.5 -63.5 216.5q0 146 65 215q65 69 190 69q66 0 114 -15.5q48 -15.5 79.5 -50q31.5 -34.5 46.5 -88.5q15 -54 15 -130q0 -149 -64 -216.5q-64 -67.5 -191 -67.5zt0 0zM285 120q25 0 43.5 7.5q18.5 7.5 31.5 24.5q13 17 19.5 46q6.5 29 6.5 72q0 43 -6 72q-6 29 -19 46q-13 17 -32 24.5q-19 7.5 -44 7.5q-25 0 -44 -7.5q-19 -7.5 -31.5 -25q-12.5 -17.5 -19 -46.5q-6.5 -29 -6.5 -71q0 -43 6.5 -72q6.5 -29 19 -46q12.5 -17 31.5 -24.5q19 -7.5 44 -7.5zt0 0zM305 780h190l-160 -160l-120 0z" />
<glyph unicode="&#244;" horiz-adv-x="570" d="M285 -14q-128 0 -191.5 67.5q-63.5 67.5 -63.5 216.5q0 146 65 215q65 69 190 69q66 0 114 -15.5q48 -15.5 79.5 -50q31.5 -34.5 46.5 -88.5q15 -54 15 -130q0 -149 -64 -216.5q-64 -67.5 -191 -67.5zt0 0zM285 120q25 0 43.5 7.5q18.5 7.5 31.5 24.5q13 17 19.5 46q6.5 29 6.5 72q0 43 -6 72q-6 29 -19 46q-13 17 -32 24.5q-19 7.5 -44 7.5q-25 0 -44 -7.5q-19 -7.5 -31.5 -25q-12.5 -17.5 -19 -46.5q-6.5 -29 -6.5 -71q0 -43 6.5 -72q6.5 -29 19 -46q12.5 -17 31.5 -24.5q19 -7.5 44 -7.5zt0 0zM207 780h156l112 -160h-122l-67 86l-71 -86l-120 0z" />
<glyph unicode="&#245;" horiz-adv-x="570" d="M285 -14q-128 0 -191.5 67.5q-63.5 67.5 -63.5 216.5q0 146 65 215q65 69 190 69q66 0 114 -15.5q48 -15.5 79.5 -50q31.5 -34.5 46.5 -88.5q15 -54 15 -130q0 -149 -64 -216.5q-64 -67.5 -191 -67.5zt0 0zM285 120q25 0 43.5 7.5q18.5 7.5 31.5 24.5q13 17 19.5 46q6.5 29 6.5 72q0 43 -6 72q-6 29 -19 46q-13 17 -32 24.5q-19 7.5 -44 7.5q-25 0 -44 -7.5q-19 -7.5 -31.5 -25q-12.5 -17.5 -19 -46.5q-6.5 -29 -6.5 -71q0 -43 6.5 -72q6.5 -29 19 -46q12.5 -17 31.5 -24.5q19 -7.5 44 -7.5zt0 0zM95 630q2 65 33 98.5q31 33.5 78 33.5q22 0 41.5 -7.5q19.5 -7.5 44.5 -18.5q13 -6 22 -10q9 -4 16 -6.5q7 -2.5 12.5 -3.5q5.5 -1 12.5 -1q33 0 39 47l81 -13q-3 -61 -33 -96q-30 -35 -78 -35q-12 0 -22 1q-10 1 -19.5 4q-9.5 3 -20.5 7.5q-11 4.5 -25 11.5q-23 11 -35 17.5q-12 6.5 -26 6.5q-14 0 -25 -12.5q-11 -12.5 -15 -35.5z" />
<glyph unicode="&#246;" horiz-adv-x="570" d="M285 -14q-128 0 -191.5 67.5q-63.5 67.5 -63.5 216.5q0 146 65 215q65 69 190 69q66 0 114 -15.5q48 -15.5 79.5 -50q31.5 -34.5 46.5 -88.5q15 -54 15 -130q0 -149 -64 -216.5q-64 -67.5 -191 -67.5zt0 0zM285 120q25 0 43.5 7.5q18.5 7.5 31.5 24.5q13 17 19.5 46q6.5 29 6.5 72q0 43 -6 72q-6 29 -19 46q-13 17 -32 24.5q-19 7.5 -44 7.5q-25 0 -44 -7.5q-19 -7.5 -31.5 -25q-12.5 -17.5 -19 -46.5q-6.5 -29 -6.5 -71q0 -43 6.5 -72q6.5 -29 19 -46q12.5 -17 31.5 -24.5q19 -7.5 44 -7.5zt0 0zM174 624q-45 0 -64.5 19q-19.5 19 -19.5 57q0 38 19.5 57q19.5 19 64.5 19q45 0 64.5 -19q19.5 -19 19.5 -57q0 -38 -19.5 -57q-19.5 -19 -64.5 -19zt0 0zM396 624q-45 0 -64.5 19q-19.5 19 -19.5 57q0 38 19.5 57q19.5 19 64.5 19q45 0 64.5 -19q19.5 -19 19.5 -57q0 -38 -19.5 -57t-64.5 -19z" />
<glyph unicode="&#247;" horiz-adv-x="600" d="M85 420h430v-130h-430zM300 60q-95 0 -95 95q0 95 95 95q95 0 95 -95q0 -95 -95 -95zt0 0zM300 460q-95 0 -95 95q0 95 95 95q95 0 95 -95q0 -95 -95 -95z" />
<glyph unicode="&#248;" horiz-adv-x="570" d="M285 -14q-71 0 -121 19l-34 -53l-70 48l34 53q-64 68 -64 217q0 146 65 215q65 69 190 69q71 0 121 -19l34 53l70 -48l-33 -51q32 -34 47.5 -87.5q15.5 -53.5 15.5 -131.5q0 -149 -64 -216.5q-64 -67.5 -191 -67.5zt0 0zM285 120q25 0 43.5 7.5q18.5 7.5 31.5 24.5q13 17 19.5 46q6.5 29 6.5 72q0 40 -6 69l-137 -212q17 -7 42 -7zt0 0zM184 270q0 -41 6 -69l137 212q-17 7 -42 7q-25 0 -44 -7.5q-19 -7.5 -31.5 -25q-12.5 -17.5 -19 -46.5t-6.5 -71z" />
<glyph unicode="&#249;" horiz-adv-x="580" d="M226 -14q-80 0 -125.5 45q-45.5 45 -45.5 149v360h150v-310q0 -64 19.5 -87q19.5 -23 62.5 -23q40 0 61.5 25q21.5 25 21.5 85v310h150v-540h-145l-5 75q-22 -48 -59 -68.5q-37 -20.5 -85 -20.5zt0 0zM78 780h192l88 -160l-122 0z" />
<glyph unicode="&#250;" horiz-adv-x="580" d="M226 -14q-80 0 -125.5 45q-45.5 45 -45.5 149v360h150v-310q0 -64 19.5 -87q19.5 -23 62.5 -23q40 0 61.5 25q21.5 25 21.5 85v310h150v-540h-145l-5 75q-22 -48 -59 -68.5q-37 -20.5 -85 -20.5zt0 0zM307 780h190l-160 -160l-120 0z" />
<glyph unicode="&#251;" horiz-adv-x="580" d="M226 -14q-80 0 -125.5 45q-45.5 45 -45.5 149v360h150v-310q0 -64 19.5 -87q19.5 -23 62.5 -23q40 0 61.5 25q21.5 25 21.5 85v310h150v-540h-145l-5 75q-22 -48 -59 -68.5q-37 -20.5 -85 -20.5zt0 0zM209 780h156l112 -160h-122l-67 86l-71 -86l-120 0z" />
<glyph unicode="&#252;" horiz-adv-x="580" d="M226 -14q-80 0 -125.5 45q-45.5 45 -45.5 149v360h150v-310q0 -64 19.5 -87q19.5 -23 62.5 -23q40 0 61.5 25q21.5 25 21.5 85v310h150v-540h-145l-5 75q-22 -48 -59 -68.5q-37 -20.5 -85 -20.5zt0 0zM176 624q-45 0 -64.5 19q-19.5 19 -19.5 57q0 38 19.5 57q19.5 19 64.5 19q45 0 64.5 -19q19.5 -19 19.5 -57q0 -38 -19.5 -57q-19.5 -19 -64.5 -19zt0 0zM398 624q-45 0 -64.5 19q-19.5 19 -19.5 57q0 38 19.5 57q19.5 19 64.5 19q45 0 64.5 -19q19.5 -19 19.5 -57q0 -38 -19.5 -57t-64.5 -19z" />
<glyph unicode="&#253;" horiz-adv-x="520" d="M185 -194q-15 0 -29.5 2q-14.5 2 -25.5 5q-13 3 -25 7l0 134q11 -7 22.5 -10.5q11.5 -3.5 27.5 -3.5q19 0 33.5 11.5q14.5 11.5 20.5 48.5l-199 540h162l105 -330l79 330h154l-148 -526q-19 -67 -37 -107.5q-18 -40.5 -39 -63q-21 -22.5 -45.5 -30q-24.5 -7.5 -55.5 -7.5zt0 0zM280 780h190l-160 -160l-120 0z" />
<glyph unicode="&#254;" horiz-adv-x="590" d="M60 760h150v-295q19 37 57 63q38 26 103 26q50 0 86 -15q36 -15 59 -48.5q23 -33.5 34 -86.5q11 -53 11 -129q0 -154 -49.5 -221.5q-49.5 -67.5 -155.5 -67.5q-32 0 -55.5 7.5q-23.5 7.5 -41 19.5q-17.5 12 -29 27q-11.5 15 -19.5 30l0 -250h-150zM406 275q0 42 -6 70q-6 28 -18.5 44.5q-12.5 16.5 -31 23.5q-18.5 7 -42.5 7q-47 0 -72.5 -29q-25.5 -29 -25.5 -98v-46q0 -69 25.5 -98q25.5 -29 73.5 -29q24 0 42 7q18 7 30.5 24.5q12.5 17.5 18.5 47.5t6 76z" />
<glyph unicode="&#255;" horiz-adv-x="520" d="M185 -194q-15 0 -29.5 2q-14.5 2 -25.5 5q-13 3 -25 7l0 134q11 -7 22.5 -10.5q11.5 -3.5 27.5 -3.5q19 0 33.5 11.5q14.5 11.5 20.5 48.5l-199 540h162l105 -330l79 330h154l-148 -526q-19 -67 -37 -107.5q-18 -40.5 -39 -63q-21 -22.5 -45.5 -30q-24.5 -7.5 -55.5 -7.5zt0 0zM149 624q-45 0 -64.5 19q-19.5 19 -19.5 57q0 38 19.5 57q19.5 19 64.5 19q45 0 64.5 -19q19.5 -19 19.5 -57q0 -38 -19.5 -57q-19.5 -19 -64.5 -19zt0 0zM371 624q-45 0 -64.5 19q-19.5 19 -19.5 57q0 38 19.5 57q19.5 19 64.5 19q45 0 64.5 -19q19.5 -19 19.5 -57q0 -38 -19.5 -57t-64.5 -19z" />
<glyph unicode="&#256;" horiz-adv-x="640" d="M231 700h180l219 -700h-162l-43 150h-216l-43 -150h-156zM246 280h143l-71 250zM150 882h340v-104l-340 0z" />
<glyph unicode="&#257;" horiz-adv-x="535" d="M183 -14q-75 0 -114 40.5q-39 40.5 -39 123.5q0 43 11 75q11 32 36 53q25 21 65 31.5q40 10.5 98 10.5h90v27q0 40 -20 56.5q-20 16.5 -75 16.5q-48 0 -91.5 -12q-43.5 -12 -68.5 -27l0 144q32 12 80.5 20.5q48.5 8.5 106.5 8.5q62 0 103.5 -10.5q41.5 -10.5 67 -34q25.5 -23.5 36.5 -62q11 -38.5 11 -94.5v-353h-135l-5 80q-13 -38 -52 -66q-39 -28 -105 -28zt0 0zM245 110q39 0 62 24q23 24 23 71v25h-70q-43 0 -59.5 -15q-16.5 -15 -16.5 -50q0 -55 61 -55zt0 0zM125 740h300v-100l-300 0z" />
<glyph unicode="&#258;" horiz-adv-x="640" d="M231 700h180l219 -700h-162l-43 150h-216l-43 -150h-156zM246 280h143l-71 250zM320 755q-143 0 -180 145l94 25q11 -38 33.5 -54q22.5 -16 52.5 -16q30 0 52.5 16q22.5 16 33.5 54l94 -25q-37 -145 -180 -145z" />
<glyph unicode="&#259;" horiz-adv-x="535" d="M183 -14q-75 0 -114 40.5q-39 40.5 -39 123.5q0 43 11 75q11 32 36 53q25 21 65 31.5q40 10.5 98 10.5h90v27q0 40 -20 56.5q-20 16.5 -75 16.5q-48 0 -91.5 -12q-43.5 -12 -68.5 -27l0 144q32 12 80.5 20.5q48.5 8.5 106.5 8.5q62 0 103.5 -10.5q41.5 -10.5 67 -34q25.5 -23.5 36.5 -62q11 -38.5 11 -94.5v-353h-135l-5 80q-13 -38 -52 -66q-39 -28 -105 -28zt0 0zM245 110q39 0 62 24q23 24 23 71v25h-70q-43 0 -59.5 -15q-16.5 -15 -16.5 -50q0 -55 61 -55zt0 0zM270 615q-145 0 -175 145l92 25q8 -38 30.5 -55q22.5 -17 52.5 -17q30 0 53.5 17q23.5 17 31.5 55l90 -25q-30 -145 -175 -145z" />
<glyph unicode="&#260;" horiz-adv-x="640" d="M536 -209q-69 0 -97.5 24.5q-28.5 24.5 -28.5 67.5q0 36 21 65q21 29 61 52l-24 0l-43 150h-216l-43 -150h-156l221 700h180l219 -700q-53 -20 -76.5 -45.5q-23.5 -25.5 -23.5 -47.5q0 -32 40 -32q31 0 60 16l0 -80q-17 -8 -39.5 -14q-22.5 -6 -54.5 -6zt0 0zM246 280h143l-71 250z" />
<glyph unicode="&#261;" horiz-adv-x="535" d="M386 -209q-69 0 -97.5 24.5q-28.5 24.5 -28.5 67.5q0 37 21.5 66q21.5 29 63.5 52l-5 79q-13 -38 -52 -66q-39 -28 -105 -28q-75 0 -114 40.5q-39 40.5 -39 123.5q0 43 11 75q11 32 36 53q25 21 65 31.5q40 10.5 98 10.5h90v27q0 40 -20 56.5q-20 16.5 -75 16.5q-48 0 -91.5 -12q-43.5 -12 -68.5 -27l0 144q32 12 80.5 20.5q48.5 8.5 106.5 8.5q62 0 103.5 -10.5q41.5 -10.5 67 -34q25.5 -23.5 36.5 -62q11 -38.5 11 -94.5v-353q-53 -20 -76.5 -45.5q-23.5 -25.5 -23.5 -47.5q0 -32 40 -32q31 0 60 16l0 -80q-17 -8 -39.5 -14q-22.5 -6 -54.5 -6zt0 0zM245 110q39 0 62 24q23 24 23 71v25h-70q-43 0 -59.5 -15q-16.5 -15 -16.5 -50q0 -55 61 -55z" />
<glyph unicode="&#262;" horiz-adv-x="575" d="M365 -14q-84 0 -145.5 20q-61.5 20 -101.5 64q-40 44 -59 114q-19 70 -19 171q0 95 20 163q20 68 60 111.5q40 43.5 101 64q61 20.5 144 20.5q35 0 67 -5.5q32 -5.5 56 -12.5q28 -8 52 -17l0 -156q-29 18 -69.5 31.5q-40.5 13.5 -100.5 13.5q-43 0 -74.5 -11q-31.5 -11 -52.5 -36q-21 -25 -31 -65.5q-10 -40.5 -10 -100.5q0 -63 10 -106q10 -43 31 -69q21 -26 52.5 -37q31.5 -11 74.5 -11q60 0 103 16q43 16 67 34l0 -156q-21 -11 -48 -20q-23 -8 -55.5 -14q-32.5 -6 -71.5 -6zt0 0zM367 920h192l-168 -160l-122 0z" />
<glyph unicode="&#263;" horiz-adv-x="475" d="M290 -14q-68 0 -117.5 15.5q-49.5 15.5 -81 50q-31.5 34.5 -46.5 89.5q-15 55 -15 134q0 145 64.5 212q64.5 67 195.5 67q35 0 64 -5q29 -5 49 -10q24 -6 42 -14l0 -154q-25 20 -56.5 34.5q-31.5 14.5 -78.5 14.5q-66 0 -96 -32.5q-30 -32.5 -30 -112.5q0 -86 32 -120.5q32 -34.5 104 -34.5q38 0 74.5 13.5q36.5 13.5 55.5 32.5l0 -144q-19 -10 -44 -18q-21 -7 -51 -12.5q-30 -5.5 -65 -5.5zt0 0zM290 780h190l-160 -160l-120 0z" />
<glyph unicode="&#264;" horiz-adv-x="575" d="M365 -14q-84 0 -145.5 20q-61.5 20 -101.5 64q-40 44 -59 114q-19 70 -19 171q0 95 20 163q20 68 60 111.5q40 43.5 101 64q61 20.5 144 20.5q35 0 67 -5.5q32 -5.5 56 -12.5q28 -8 52 -17l0 -156q-29 18 -69.5 31.5q-40.5 13.5 -100.5 13.5q-43 0 -74.5 -11q-31.5 -11 -52.5 -36q-21 -25 -31 -65.5q-10 -40.5 -10 -100.5q0 -63 10 -106q10 -43 31 -69q21 -26 52.5 -37q31.5 -11 74.5 -11q60 0 103 16q43 16 67 34l0 -156q-21 -11 -48 -20q-23 -8 -55.5 -14q-32.5 -6 -71.5 -6zt0 0zM262 920h156l122 -160h-124l-75 84l-79 -84l-122 0z" />
<glyph unicode="&#265;" horiz-adv-x="475" d="M290 -14q-68 0 -117.5 15.5q-49.5 15.5 -81 50q-31.5 34.5 -46.5 89.5q-15 55 -15 134q0 145 64.5 212q64.5 67 195.5 67q35 0 64 -5q29 -5 49 -10q24 -6 42 -14l0 -154q-25 20 -56.5 34.5q-31.5 14.5 -78.5 14.5q-66 0 -96 -32.5q-30 -32.5 -30 -112.5q0 -86 32 -120.5q32 -34.5 104 -34.5q38 0 74.5 13.5q36.5 13.5 55.5 32.5l0 -144q-19 -10 -44 -18q-21 -7 -51 -12.5q-30 -5.5 -65 -5.5zt0 0zM192 780h156l112 -160h-122l-67 86l-71 -86l-120 0z" />
<glyph unicode="&#266;" horiz-adv-x="575" d="M365 -14q-84 0 -145.5 20q-61.5 20 -101.5 64q-40 44 -59 114q-19 70 -19 171q0 95 20 163q20 68 60 111.5q40 43.5 101 64q61 20.5 144 20.5q35 0 67 -5.5q32 -5.5 56 -12.5q28 -8 52 -17l0 -156q-29 18 -69.5 31.5q-40.5 13.5 -100.5 13.5q-43 0 -74.5 -11q-31.5 -11 -52.5 -36q-21 -25 -31 -65.5q-10 -40.5 -10 -100.5q0 -63 10 -106q10 -43 31 -69q21 -26 52.5 -37q31.5 -11 74.5 -11q60 0 103 16q43 16 67 34l0 -156q-21 -11 -48 -20q-23 -8 -55.5 -14q-32.5 -6 -71.5 -6zt0 0zM340 758q-47 0 -68.5 20.5q-21.5 20.5 -21.5 61.5q0 41 21.5 61.5q21.5 20.5 68.5 20.5q47 0 68.5 -20.5q21.5 -20.5 21.5 -61.5q0 -41 -21.5 -61.5t-68.5 -20.5z" />
<glyph unicode="&#267;" horiz-adv-x="475" d="M290 -14q-68 0 -117.5 15.5q-49.5 15.5 -81 50q-31.5 34.5 -46.5 89.5q-15 55 -15 134q0 145 64.5 212q64.5 67 195.5 67q35 0 64 -5q29 -5 49 -10q24 -6 42 -14l0 -154q-25 20 -56.5 34.5q-31.5 14.5 -78.5 14.5q-66 0 -96 -32.5q-30 -32.5 -30 -112.5q0 -86 32 -120.5q32 -34.5 104 -34.5q38 0 74.5 13.5q36.5 13.5 55.5 32.5l0 -144q-19 -10 -44 -18q-21 -7 -51 -12.5q-30 -5.5 -65 -5.5zt0 0zM270 620q-46 0 -67 20q-21 20 -21 60q0 40 21 60q21 20 67 20q46 0 67 -20q21 -20 21 -60q0 -40 -21 -60t-67 -20z" />
<glyph unicode="&#268;" horiz-adv-x="575" d="M365 -14q-84 0 -145.5 20q-61.5 20 -101.5 64q-40 44 -59 114q-19 70 -19 171q0 95 20 163q20 68 60 111.5q40 43.5 101 64q61 20.5 144 20.5q35 0 67 -5.5q32 -5.5 56 -12.5q28 -8 52 -17l0 -156q-29 18 -69.5 31.5q-40.5 13.5 -100.5 13.5q-43 0 -74.5 -11q-31.5 -11 -52.5 -36q-21 -25 -31 -65.5q-10 -40.5 -10 -100.5q0 -63 10 -106q10 -43 31 -69q21 -26 52.5 -37q31.5 -11 74.5 -11q60 0 103 16q43 16 67 34l0 -156q-21 -11 -48 -20q-23 -8 -55.5 -14q-32.5 -6 -71.5 -6zt0 0zM140 920h124l76 -84l78 84h122l-122 -160l-156 0z" />
<glyph unicode="&#269;" horiz-adv-x="475" d="M290 -14q-68 0 -117.5 15.5q-49.5 15.5 -81 50q-31.5 34.5 -46.5 89.5q-15 55 -15 134q0 145 64.5 212q64.5 67 195.5 67q35 0 64 -5q29 -5 49 -10q24 -6 42 -14l0 -154q-25 20 -56.5 34.5q-31.5 14.5 -78.5 14.5q-66 0 -96 -32.5q-30 -32.5 -30 -112.5q0 -86 32 -120.5q32 -34.5 104 -34.5q38 0 74.5 13.5q36.5 13.5 55.5 32.5l0 -144q-19 -10 -44 -18q-21 -7 -51 -12.5q-30 -5.5 -65 -5.5zt0 0zM80 780h122l68 -86l70 86h120l-112 -160l-156 0z" />
<glyph unicode="&#270;" horiz-adv-x="680" d="M290 -7q-34 0 -71 2q-37 2 -68 4q-36 3 -71 6l0 690q34 3 72 6q32 2 71 4q39 2 77 2q176 0 258 -83.5q82 -83.5 82 -268.5q0 -183 -88 -272.5q-88 -89.5 -262 -89.5zt0 0zM478 355q0 112 -42.5 159q-42.5 47 -130.5 47q-11 0 -23.5 -0.5q-12.5 -0.5 -22.5 -1.5q-12 -1 -23 -2l0 -414q9 -1 20 -2q9 -1 19 -1.5q10 -0.5 20 -0.5q91 0 137 50q46 50 46 166zt0 0zM110 920h124l76 -84l78 84h122l-122 -160l-156 0z" />
<glyph unicode="&#271;" horiz-adv-x="660" d="M610 760h140l-70 -200h-100zM380 75q-8 -15 -21 -31q-13 -16 -32.5 -28.5q-19.5 -12.5 -44.5 -21q-25 -8.5 -57 -8.5q-51 0 -88 15.5q-37 15.5 -60.5 50q-23.5 34.5 -35 89.5q-11.5 55 -11.5 134q0 148 49 213.5q49 65.5 156 65.5q54 0 89.5 -23q35.5 -23 55.5 -61l0 290h150v-760h-145zM184 275q0 -46 6 -76q6 -30 18.5 -47.5q12.5 -17.5 30.5 -24.5q18 -7 42 -7q48 0 73.5 29q25.5 29 25.5 98v46q0 69 -25.5 98q-25.5 29 -72.5 29q-24 0 -42.5 -7q-18.5 -7 -31 -23.5q-12.5 -16.5 -18.5 -44.5t-6 -70z" />
<glyph unicode="&#272;" horiz-adv-x="690" d="M10 410h80v285q34 3 72 6q32 2 71 4q39 2 77 2q176 0 258 -83.5q82 -83.5 82 -268.5q0 -183 -88 -272.5q-88 -89.5 -262 -89.5q-34 0 -71 2q-37 2 -68 4q-36 3 -71 6l0 295h-80zM488 355q0 112 -42.5 159q-42.5 47 -130.5 47q-11 0 -23.5 -0.5q-12.5 -0.5 -22.5 -1.5q-12 -1 -23 -2l0 -147h121v-110h-121v-157q9 -1 20 -2q9 -1 19 -1.5q10 -0.5 20 -0.5q91 0 137 50t46 166z" />
<glyph unicode="&#273;" horiz-adv-x="590" d="M200 692h180v68h150v-68h80v-104h-80v-588h-145l-5 75q-8 -15 -21 -31q-13 -16 -32.5 -28.5q-19.5 -12.5 -44.5 -21q-25 -8.5 -57 -8.5q-51 0 -88 15.5q-37 15.5 -60.5 50q-23.5 34.5 -35 89.5q-11.5 55 -11.5 134q0 148 49 213.5q49 65.5 156 65.5q54 0 89.5 -23q35.5 -23 55.5 -61l0 118h-180zM184 275q0 -46 6 -76q6 -30 18.5 -47.5q12.5 -17.5 30.5 -24.5q18 -7 42 -7q48 0 73.5 29q25.5 29 25.5 98v46q0 69 -25.5 98q-25.5 29 -72.5 29q-24 0 -42.5 -7q-18.5 -7 -31 -23.5q-12.5 -16.5 -18.5 -44.5t-6 -70z" />
<glyph unicode="&#274;" horiz-adv-x="575" d="M80 700h450v-140h-294v-140h254v-130h-254v-150h294v-140h-450zM135 882h340v-104l-340 0z" />
<glyph unicode="&#275;" horiz-adv-x="550" d="M290 -14q-72 0 -121.5 18q-49.5 18 -80 54.5q-30.5 36.5 -44.5 91.5q-14 55 -14 130q0 138 65 206q65 68 185 68q67 0 112.5 -17.5q45.5 -17.5 74 -50.5q28.5 -33 41 -79.5q12.5 -46.5 12.5 -104.5v-72h-340q4 -64 34 -92q30 -28 96 -28q26 0 52.5 4.5q26.5 4.5 50.5 12.5q24 8 44 19q20 11 33 23l0 -134q-34 -21 -79.5 -35q-45.5 -14 -120.5 -14zt0 0zM280 440q-49 0 -72.5 -28q-23.5 -28 -27.5 -92l190 0q0 61 -19 90.5q-19 29.5 -71 29.5zt0 0zM130 740h300v-100l-300 0z" />
<glyph unicode="&#278;" horiz-adv-x="575" d="M80 700h450v-140h-294v-140h254v-130h-254v-150h294v-140h-450zM305 758q-47 0 -68.5 20.5q-21.5 20.5 -21.5 61.5q0 41 21.5 61.5q21.5 20.5 68.5 20.5q47 0 68.5 -20.5q21.5 -20.5 21.5 -61.5q0 -41 -21.5 -61.5t-68.5 -20.5z" />
<glyph unicode="&#279;" horiz-adv-x="550" d="M290 -14q-72 0 -121.5 18q-49.5 18 -80 54.5q-30.5 36.5 -44.5 91.5q-14 55 -14 130q0 138 65 206q65 68 185 68q67 0 112.5 -17.5q45.5 -17.5 74 -50.5q28.5 -33 41 -79.5q12.5 -46.5 12.5 -104.5v-72h-340q4 -64 34 -92q30 -28 96 -28q26 0 52.5 4.5q26.5 4.5 50.5 12.5q24 8 44 19q20 11 33 23l0 -134q-34 -21 -79.5 -35q-45.5 -14 -120.5 -14zt0 0zM280 440q-49 0 -72.5 -28q-23.5 -28 -27.5 -92l190 0q0 61 -19 90.5q-19 29.5 -71 29.5zt0 0zM275 620q-46 0 -67 20q-21 20 -21 60q0 40 21 60q21 20 67 20q46 0 67 -20q21 -20 21 -60q0 -40 -21 -60t-67 -20z" />
<glyph unicode="&#280;" horiz-adv-x="575" d="M80 700h450v-140h-294v-140h254v-130h-254v-150h294v-140q-53 -20 -76.5 -45.5q-23.5 -25.5 -23.5 -47.5q0 -32 40 -32q31 0 60 16l0 -80q-17 -8 -39.5 -14q-22.5 -6 -54.5 -6q-69 0 -97.5 24.5q-28.5 24.5 -28.5 67.5q0 36 21 65q21 29 61 52l-312 0z" />
<glyph unicode="&#281;" horiz-adv-x="550" d="M290 -14q-72 0 -121.5 18q-49.5 18 -80 54.5q-30.5 36.5 -44.5 91.5q-14 55 -14 130q0 138 65 206q65 68 185 68q67 0 112.5 -17.5q45.5 -17.5 74 -50.5q28.5 -33 41 -79.5q12.5 -46.5 12.5 -104.5v-72h-340q4 -64 34 -92q30 -28 96 -28q26 0 52.5 4.5q26.5 4.5 50.5 12.5q24 8 44 19q20 11 33 23l0 -134q-42 -25 -68 -44q-26 -19 -39.5 -34q-13.5 -15 -18 -27q-4.5 -12 -4.5 -23q0 -32 40 -32q31 0 60 16l0 -80q-17 -8 -39.5 -14q-22.5 -6 -54.5 -6q-69 0 -97.5 24.5q-28.5 24.5 -28.5 67.5q0 32 17 56.5q17 24.5 49 46.5zM280 440q-49 0 -72.5 -28q-23.5 -28 -27.5 -92l190 0q0 61 -19 90.5t-71 29.5z" />
<glyph unicode="&#282;" horiz-adv-x="575" d="M80 700h450v-140h-294v-140h254v-130h-254v-150h294v-140h-450zM105 920h124l76 -84l78 84h122l-122 -160l-156 0z" />
<glyph unicode="&#283;" horiz-adv-x="550" d="M290 -14q-72 0 -121.5 18q-49.5 18 -80 54.5q-30.5 36.5 -44.5 91.5q-14 55 -14 130q0 138 65 206q65 68 185 68q67 0 112.5 -17.5q45.5 -17.5 74 -50.5q28.5 -33 41 -79.5q12.5 -46.5 12.5 -104.5v-72h-340q4 -64 34 -92q30 -28 96 -28q26 0 52.5 4.5q26.5 4.5 50.5 12.5q24 8 44 19q20 11 33 23l0 -134q-34 -21 -79.5 -35q-45.5 -14 -120.5 -14zt0 0zM280 440q-49 0 -72.5 -28q-23.5 -28 -27.5 -92l190 0q0 61 -19 90.5q-19 29.5 -71 29.5zt0 0zM85 780h122l68 -86l70 86h120l-112 -160l-156 0z" />
<glyph unicode="&#284;" horiz-adv-x="650" d="M370 -14q-86 0 -148.5 20q-62.5 20 -103 63.5q-40.5 43.5 -59.5 113.5q-19 70 -19 171q0 96 20 164q20 68 60.5 111.5q40.5 43.5 103 64q62.5 20.5 146.5 20.5q42 0 75 -5.5q33 -5.5 56 -12.5q27 -8 49 -17l0 -156q-30 17 -76.5 31q-46.5 14 -103.5 14q-43 0 -74.5 -11q-31.5 -11 -52.5 -36q-21 -25 -31 -65.5q-10 -40.5 -10 -100.5q0 -63 10 -106q10 -43 31 -69q21 -26 52.5 -37q31.5 -11 74.5 -11q26 0 42.5 3q16.5 3 31.5 7l0 123h-94v130h240v-355q-31 -17 -86 -35.5q-55 -18.5 -134 -18.5zt0 0zM272 920h156l122 -160h-124l-75 84l-79 -84l-122 0z" />
<glyph unicode="&#285;" horiz-adv-x="590" d="M255 -194q-56 0 -105 10q-49 10 -75 21l0 154q22 -16 67.5 -33.5q45.5 -17.5 117.5 -17.5q63 0 91.5 28.5q28.5 28.5 28.5 91.5v45q-8 -15 -21 -31q-13 -16 -32.5 -28.5q-19.5 -12.5 -44.5 -21q-25 -8.5 -57 -8.5q-102 0 -148.5 63q-46.5 63 -46.5 199q0 146 49 211q49 65 156 65q54 0 89.5 -23q35.5 -23 55.5 -61l5 70h145v-470q0 -72 -16.5 -122.5q-16.5 -50.5 -50.5 -82q-34 -31.5 -86 -45.5q-52 -14 -122 -14zt0 0zM280 150q48 0 74 28.5q26 28.5 26 93.5v26q0 65 -25.5 93.5q-25.5 28.5 -72.5 28.5q-49 0 -73.5 -28.5q-24.5 -28.5 -24.5 -101.5q0 -80 24.5 -110q24.5 -30 71.5 -30zt0 0zM202 780h156l112 -160h-122l-67 86l-71 -86l-120 0z" />
<glyph unicode="&#286;" horiz-adv-x="650" d="M370 -14q-86 0 -148.5 20q-62.5 20 -103 63.5q-40.5 43.5 -59.5 113.5q-19 70 -19 171q0 96 20 164q20 68 60.5 111.5q40.5 43.5 103 64q62.5 20.5 146.5 20.5q42 0 75 -5.5q33 -5.5 56 -12.5q27 -8 49 -17l0 -156q-30 17 -76.5 31q-46.5 14 -103.5 14q-43 0 -74.5 -11q-31.5 -11 -52.5 -36q-21 -25 -31 -65.5q-10 -40.5 -10 -100.5q0 -63 10 -106q10 -43 31 -69q21 -26 52.5 -37q31.5 -11 74.5 -11q26 0 42.5 3q16.5 3 31.5 7l0 123h-94v130h240v-355q-31 -17 -86 -35.5q-55 -18.5 -134 -18.5zt0 0zM350 755q-143 0 -180 145l94 25q11 -38 33.5 -54q22.5 -16 52.5 -16q30 0 52.5 16q22.5 16 33.5 54l94 -25q-37 -145 -180 -145z" />
<glyph unicode="&#287;" horiz-adv-x="590" d="M255 -194q-56 0 -105 10q-49 10 -75 21l0 154q22 -16 67.5 -33.5q45.5 -17.5 117.5 -17.5q63 0 91.5 28.5q28.5 28.5 28.5 91.5v45q-8 -15 -21 -31q-13 -16 -32.5 -28.5q-19.5 -12.5 -44.5 -21q-25 -8.5 -57 -8.5q-102 0 -148.5 63q-46.5 63 -46.5 199q0 146 49 211q49 65 156 65q54 0 89.5 -23q35.5 -23 55.5 -61l5 70h145v-470q0 -72 -16.5 -122.5q-16.5 -50.5 -50.5 -82q-34 -31.5 -86 -45.5q-52 -14 -122 -14zt0 0zM280 150q48 0 74 28.5q26 28.5 26 93.5v26q0 65 -25.5 93.5q-25.5 28.5 -72.5 28.5q-49 0 -73.5 -28.5q-24.5 -28.5 -24.5 -101.5q0 -80 24.5 -110q24.5 -30 71.5 -30zt0 0zM280 615q-145 0 -175 145l92 25q8 -38 30.5 -55q22.5 -17 52.5 -17q30 0 53.5 17q23.5 17 31.5 55l90 -25q-30 -145 -175 -145z" />
<glyph unicode="&#288;" horiz-adv-x="650" d="M370 -14q-86 0 -148.5 20q-62.5 20 -103 63.5q-40.5 43.5 -59.5 113.5q-19 70 -19 171q0 96 20 164q20 68 60.5 111.5q40.5 43.5 103 64q62.5 20.5 146.5 20.5q42 0 75 -5.5q33 -5.5 56 -12.5q27 -8 49 -17l0 -156q-30 17 -76.5 31q-46.5 14 -103.5 14q-43 0 -74.5 -11q-31.5 -11 -52.5 -36q-21 -25 -31 -65.5q-10 -40.5 -10 -100.5q0 -63 10 -106q10 -43 31 -69q21 -26 52.5 -37q31.5 -11 74.5 -11q26 0 42.5 3q16.5 3 31.5 7l0 123h-94v130h240v-355q-31 -17 -86 -35.5q-55 -18.5 -134 -18.5zt0 0zM350 758q-47 0 -68.5 20.5q-21.5 20.5 -21.5 61.5q0 41 21.5 61.5q21.5 20.5 68.5 20.5q47 0 68.5 -20.5q21.5 -20.5 21.5 -61.5q0 -41 -21.5 -61.5t-68.5 -20.5z" />
<glyph unicode="&#289;" horiz-adv-x="590" d="M255 -194q-56 0 -105 10q-49 10 -75 21l0 154q22 -16 67.5 -33.5q45.5 -17.5 117.5 -17.5q63 0 91.5 28.5q28.5 28.5 28.5 91.5v45q-8 -15 -21 -31q-13 -16 -32.5 -28.5q-19.5 -12.5 -44.5 -21q-25 -8.5 -57 -8.5q-102 0 -148.5 63q-46.5 63 -46.5 199q0 146 49 211q49 65 156 65q54 0 89.5 -23q35.5 -23 55.5 -61l5 70h145v-470q0 -72 -16.5 -122.5q-16.5 -50.5 -50.5 -82q-34 -31.5 -86 -45.5q-52 -14 -122 -14zt0 0zM280 150q48 0 74 28.5q26 28.5 26 93.5v26q0 65 -25.5 93.5q-25.5 28.5 -72.5 28.5q-49 0 -73.5 -28.5q-24.5 -28.5 -24.5 -101.5q0 -80 24.5 -110q24.5 -30 71.5 -30zt0 0zM280 620q-46 0 -67 20q-21 20 -21 60q0 40 21 60q21 20 67 20q46 0 67 -20q21 -20 21 -60q0 -40 -21 -60t-67 -20z" />
<glyph unicode="&#290;" horiz-adv-x="650" d="M370 -14q-86 0 -148.5 20q-62.5 20 -103 63.5q-40.5 43.5 -59.5 113.5q-19 70 -19 171q0 96 20 164q20 68 60.5 111.5q40.5 43.5 103 64q62.5 20.5 146.5 20.5q42 0 75 -5.5q33 -5.5 56 -12.5q27 -8 49 -17l0 -156q-30 17 -76.5 31q-46.5 14 -103.5 14q-43 0 -74.5 -11q-31.5 -11 -52.5 -36q-21 -25 -31 -65.5q-10 -40.5 -10 -100.5q0 -63 10 -106q10 -43 31 -69q21 -26 52.5 -37q31.5 -11 74.5 -11q26 0 42.5 3q16.5 3 31.5 7l0 123h-94v130h240v-355q-31 -17 -86 -35.5q-55 -18.5 -134 -18.5zt0 0zM275 -183q17 0 31.5 1q14.5 1 25.5 4.5q11 3.5 18 11q7 7.5 10 20.5q-34 0 -54.5 3q-20.5 3 -32 8.5q-11.5 5.5 -15 14.5q-3.5 9 -3.5 21q0 21 21 37q21 16 74 16q49 0 72 -21q23 -21 23 -56q0 -23 -11 -45q-11 -22 -33 -39q-22 -17 -53.5 -27q-31.5 -10 -72.5 -10z" />
<glyph unicode="&#291;" horiz-adv-x="590" d="M255 -194q-56 0 -105 10q-49 10 -75 21l0 154q22 -16 67.5 -33.5q45.5 -17.5 117.5 -17.5q63 0 91.5 28.5q28.5 28.5 28.5 91.5v45q-8 -15 -21 -31q-13 -16 -32.5 -28.5q-19.5 -12.5 -44.5 -21q-25 -8.5 -57 -8.5q-102 0 -148.5 63q-46.5 63 -46.5 199q0 146 49 211q49 65 156 65q54 0 89.5 -23q35.5 -23 55.5 -61l5 70h145v-470q0 -72 -16.5 -122.5q-16.5 -50.5 -50.5 -82q-34 -31.5 -86 -45.5q-52 -14 -122 -14zt0 0zM280 150q48 0 74 28.5q26 28.5 26 93.5v26q0 65 -25.5 93.5q-25.5 28.5 -72.5 28.5q-49 0 -73.5 -28.5q-24.5 -28.5 -24.5 -101.5q0 -80 24.5 -110q24.5 -30 71.5 -30zt0 0zM350 753q-35 0 -55.5 -7q-20.5 -7 -24.5 -30q31 0 50.5 -3q19.5 -3 30.5 -9q11 -6 15 -15q4 -9 4 -20q0 -21 -20.5 -37q-20.5 -16 -69.5 -16q-46 0 -68 21q-22 21 -22 56q0 23 9.5 45q9.5 22 29 39q19.5 17 50 27q30.5 10 71.5 10z" />
<glyph unicode="&#292;" horiz-adv-x="720" d="M80 700h156v-273h248v273h156v-700h-156v287h-248v-287h-156zM282 920h156l122 -160h-124l-75 84l-79 -84l-122 0z" />
<glyph unicode="&#293;" horiz-adv-x="585" d="M60 760h150v-296q22 49 61 69.5q39 20.5 88 20.5q83 0 127 -45q44 -45 44 -149v-360h-150v305q0 67 -20 91q-20 24 -65 24q-42 0 -63.5 -25.5q-21.5 -25.5 -21.5 -89.5v-305h-150zM57 1000h156l112 -160h-122l-67 86l-71 -86l-120 0z" />
<glyph unicode="&#294;" horiz-adv-x="740" d="M10 605h80v95h156v-95h248v95h156v-95h80v-110h-80v-495h-156v287h-248v-287h-156v495h-80zM494 427v68h-248l0 -68z" />
<glyph unicode="&#295;" horiz-adv-x="605" d="M0 692h80v68h150v-68h200v-104h-200v-124q22 49 61 69.5q39 20.5 88 20.5q83 0 127 -45q44 -45 44 -149v-360h-150v305q0 67 -20 91q-20 24 -65 24q-42 0 -63.5 -25.5q-21.5 -25.5 -21.5 -89.5v-305h-150v588l-80 0z" />
<glyph unicode="&#298;" horiz-adv-x="330" d="M87 700h156v-700h-156zM-5 882h340v-104l-340 0z" />
<glyph unicode="&#299;" horiz-adv-x="290" d="M70 540h150v-540h-150zM0 740h300v-100l-300 0z" />
<glyph unicode="&#302;" horiz-adv-x="330" d="M87 700h156v-693v-7q-43 -20 -66.5 -45.5q-23.5 -25.5 -23.5 -47.5q0 -32 40 -32q31 0 60 16l0 -80q-17 -8 -39.5 -14q-22.5 -6 -54.5 -6q-69 0 -97.5 24.5q-28.5 24.5 -28.5 67.5q0 36 21 65q21 29 61 52l-28 0z" />
<glyph unicode="&#303;" horiz-adv-x="290" d="M70 540h150v-530v-10q-38 -20 -61.5 -45.5q-23.5 -25.5 -23.5 -47.5q0 -32 40 -32q31 0 60 16l0 -80q-17 -8 -39.5 -14q-22.5 -6 -54.5 -6q-69 0 -97.5 24.5q-28.5 24.5 -28.5 67.5q0 36 21 65q21 29 61 52l-27 0zM145 620q-46 0 -67 20q-21 20 -21 60q0 40 21 60q21 20 67 20q46 0 67 -20q21 -20 21 -60q0 -40 -21 -60t-67 -20z" />
<glyph unicode="&#304;" horiz-adv-x="330" d="M87 700h156v-700h-156zM165 758q-47 0 -68.5 20.5q-21.5 20.5 -21.5 61.5q0 41 21.5 61.5q21.5 20.5 68.5 20.5q47 0 68.5 -20.5q21.5 -20.5 21.5 -61.5q0 -41 -21.5 -61.5t-68.5 -20.5z" />
<glyph unicode="&#305;" horiz-adv-x="290" d="M70 540h150v-540l-150 0z" />
<glyph unicode="&#308;" horiz-adv-x="420" d="M140 -14q-26 0 -47.5 2q-21.5 2 -36.5 5q-18 4 -31 8l0 156q11 -8 24 -13q11 -5 26.5 -8.5q15.5 -3.5 34.5 -3.5q22 0 37 4.5q15 4.5 24.5 16q9.5 11.5 13.5 31.5q4 20 4 51v465h156v-465q0 -72 -11 -120q-11 -48 -35.5 -76.5q-24.5 -28.5 -63.5 -40.5q-39 -12 -95 -12zt0 0zM189 920h156l122 -160h-124l-75 84l-79 -84l-122 0z" />
<glyph unicode="&#309;" horiz-adv-x="290" d="M70 -187q-17 0 -32 2q-15 2 -27 5q-14 3 -26 7l0 134q9 -6 20 -10q11 -4 23 -4q22 0 32 11.5q10 11.5 10 43.5v538h150v-548q0 -98 -37 -138.5q-37 -40.5 -113 -40.5zt0 0zM67 780h156l112 -160h-122l-67 86l-71 -86l-120 0z" />
<glyph unicode="&#310;" horiz-adv-x="655" d="M286 285h-50v-285h-156v700h156v-275h50l154 275h180l-201 -342l221 -358h-186zM285 -183q17 0 31.5 1q14.5 1 25.5 4.5q11 3.5 18 11q7 7.5 10 20.5q-34 0 -54.5 3q-20.5 3 -32 8.5q-11.5 5.5 -15 14.5q-3.5 9 -3.5 21q0 21 21 37q21 16 74 16q49 0 72 -21q23 -21 23 -56q0 -23 -11 -45q-11 -22 -33 -39q-22 -17 -53.5 -27q-31.5 -10 -72.5 -10z" />
<glyph unicode="&#311;" horiz-adv-x="555" d="M60 760h150v-415h39l110 195h166l-159 -256l174 -284h-170l-120 215h-40v-215h-150zM230 -183q35 0 55.5 7q20.5 7 24.5 30q-31 0 -50.5 3q-19.5 3 -30.5 9q-11 6 -15 15q-4 9 -4 20q0 21 20.5 37q20.5 16 69.5 16q46 0 68 -21q22 -21 22 -56q0 -23 -9.5 -45q-9.5 -22 -29 -39q-19.5 -17 -50 -27q-30.5 -10 -71.5 -10z" />
<glyph unicode="&#313;" horiz-adv-x="530" d="M80 700h156v-560h274v-140h-430zM195 920h192l-168 -160l-122 0z" />
<glyph unicode="&#314;" horiz-adv-x="315" d="M205 -7q-79 0 -114.5 36.5q-35.5 36.5 -35.5 122.5v608h150v-578q0 -30 9.5 -41q9.5 -11 30.5 -11q8 0 15.5 2q7.5 2 14.5 4q8 3 15 6l0 -134q-11 -4 -24 -8q-11 -3 -26.5 -5q-15.5 -2 -34.5 -2zt0 0zM155 887h154l-130 -95l-97 0z" />
<glyph unicode="&#315;" horiz-adv-x="530" d="M80 700h156v-560h274v-140h-430zM220 -183q17 0 31.5 1q14.5 1 25.5 4.5q11 3.5 18 11q7 7.5 10 20.5q-34 0 -54.5 3q-20.5 3 -32 8.5q-11.5 5.5 -15 14.5q-3.5 9 -3.5 21q0 21 21 37q21 16 74 16q49 0 72 -21q23 -21 23 -56q0 -23 -11 -45q-11 -22 -33 -39q-22 -17 -53.5 -27q-31.5 -10 -72.5 -10z" />
<glyph unicode="&#316;" horiz-adv-x="315" d="M205 -7q-79 0 -114.5 36.5q-35.5 36.5 -35.5 122.5v608h150v-578q0 -30 9.5 -41q9.5 -11 30.5 -11q8 0 15.5 2q7.5 2 14.5 4q8 3 15 6l0 -134q-11 -4 -24 -8q-11 -3 -26.5 -5q-15.5 -2 -34.5 -2zt0 0zM110 -183q35 0 55.5 7q20.5 7 24.5 30q-31 0 -50.5 3q-19.5 3 -30.5 9q-11 6 -15 15q-4 9 -4 20q0 21 20.5 37q20.5 16 69.5 16q46 0 68 -21q22 -21 22 -56q0 -23 -9.5 -45q-9.5 -22 -29 -39q-19.5 -17 -50 -27q-30.5 -10 -71.5 -10z" />
<glyph unicode="&#317;" horiz-adv-x="530" d="M350 700h146l-74 -200h-106zM80 700h156v-560h274v-140l-430 0z" />
<glyph unicode="&#318;" horiz-adv-x="375" d="M285 760h140l-70 -200h-100zM205 -7q-79 0 -114.5 36.5q-35.5 36.5 -35.5 122.5v608h150v-578q0 -30 9.5 -41q9.5 -11 30.5 -11q8 0 15.5 2q7.5 2 14.5 4q8 3 15 6l0 -134q-11 -4 -24 -8q-11 -3 -26.5 -5t-34.5 -2z" />
<glyph unicode="&#319;" horiz-adv-x="530" d="M80 700h156v-560h274v-140h-430zM422 285q-95 0 -95 95q0 95 95 95q95 0 95 -95q0 -95 -95 -95z" />
<glyph unicode="&#320;" horiz-adv-x="415" d="M205 -7q-79 0 -114.5 36.5q-35.5 36.5 -35.5 122.5v608h150v-578q0 -30 9.5 -41q9.5 -11 30.5 -11q8 0 15.5 2q7.5 2 14.5 4q8 3 15 6l0 -134q-11 -4 -24 -8q-11 -3 -26.5 -5q-15.5 -2 -34.5 -2zt0 0zM342 285q-95 0 -95 95q0 95 95 95q95 0 95 -95q0 -95 -95 -95z" />
<glyph unicode="&#321;" horiz-adv-x="540" d="M10 339l80 46v315h156v-225l137 79v-120l-137 -79v-215h274v-140h-430v265l-80 -46z" />
<glyph unicode="&#322;" horiz-adv-x="370" d="M10 352l100 57v351h150v-264l100 58v-114l-100 -58v-200q0 -30 9.5 -41q9.5 -11 30.5 -11q8 0 15.5 2q7.5 2 14.5 4q8 3 15 6l0 -134q-11 -4 -24 -8q-11 -3 -26.5 -5q-15.5 -2 -34.5 -2q-79 0 -114.5 36.5q-35.5 36.5 -35.5 122.5v143l-100 -57z" />
<glyph unicode="&#323;" horiz-adv-x="740" d="M80 700h188l184 -350q12 -23 21.5 -44.5q9.5 -21.5 17.5 -38.5q8 -20 15 -37l2 0q-1 17 -2 37q-1 17 -1.5 38.5q-0.5 21.5 -0.5 44.5v350h156v-700h-188l-184 350q-12 23 -22 44q-10 21 -17 38q-9 19 -15 38l-2 0q1 -19 2 -38q1 -17 1.5 -38q0.5 -21 0.5 -44v-350h-156zM396 920h192l-168 -160l-122 0z" />
<glyph unicode="&#324;" horiz-adv-x="585" d="M60 540h145l5 -75q22 48 61 68.5q39 20.5 88 20.5q83 0 127 -45q44 -45 44 -149v-360h-150v310q0 64 -20 87q-20 23 -65 23q-42 0 -63.5 -25q-21.5 -25 -21.5 -85v-310h-150zM314 780h190l-160 -160l-120 0z" />
<glyph unicode="&#325;" horiz-adv-x="740" d="M80 700h188l184 -350q12 -23 21.5 -44.5q9.5 -21.5 17.5 -38.5q8 -20 15 -37l2 0q-1 17 -2 37q-1 17 -1.5 38.5q-0.5 21.5 -0.5 44.5v350h156v-700h-188l-184 350q-12 23 -22 44q-10 21 -17 38q-9 19 -15 38l-2 0q1 -19 2 -38q1 -17 1.5 -38q0.5 -21 0.5 -44v-350h-156zM295 -183q17 0 31.5 1q14.5 1 25.5 4.5q11 3.5 18 11q7 7.5 10 20.5q-34 0 -54.5 3q-20.5 3 -32 8.5q-11.5 5.5 -15 14.5q-3.5 9 -3.5 21q0 21 21 37q21 16 74 16q49 0 72 -21q23 -21 23 -56q0 -23 -11 -45q-11 -22 -33 -39q-22 -17 -53.5 -27q-31.5 -10 -72.5 -10z" />
<glyph unicode="&#326;" horiz-adv-x="585" d="M60 540h145l5 -75q22 48 61 68.5q39 20.5 88 20.5q83 0 127 -45q44 -45 44 -149v-360h-150v310q0 64 -20 87q-20 23 -65 23q-42 0 -63.5 -25q-21.5 -25 -21.5 -85v-310h-150zM225 -183q35 0 55.5 7q20.5 7 24.5 30q-31 0 -50.5 3q-19.5 3 -30.5 9q-11 6 -15 15q-4 9 -4 20q0 21 20.5 37q20.5 16 69.5 16q46 0 68 -21q22 -21 22 -56q0 -23 -9.5 -45q-9.5 -22 -29 -39q-19.5 -17 -50 -27q-30.5 -10 -71.5 -10z" />
<glyph unicode="&#327;" horiz-adv-x="740" d="M80 700h188l184 -350q12 -23 21.5 -44.5q9.5 -21.5 17.5 -38.5q8 -20 15 -37l2 0q-1 17 -2 37q-1 17 -1.5 38.5q-0.5 21.5 -0.5 44.5v350h156v-700h-188l-184 350q-12 23 -22 44q-10 21 -17 38q-9 19 -15 38l-2 0q1 -19 2 -38q1 -17 1.5 -38q0.5 -21 0.5 -44v-350h-156zM170 920h124l76 -84l78 84h122l-122 -160l-156 0z" />
<glyph unicode="&#328;" horiz-adv-x="585" d="M60 540h145l5 -75q22 48 61 68.5q39 20.5 88 20.5q83 0 127 -45q44 -45 44 -149v-360h-150v310q0 64 -20 87q-20 23 -65 23q-42 0 -63.5 -25q-21.5 -25 -21.5 -85v-310h-150zM105 780h122l68 -86l70 86h120l-112 -160l-156 0z" />
<glyph unicode="&#332;" horiz-adv-x="710" d="M355 -14q-79 0 -138 20.5q-59 20.5 -98.5 64.5q-39.5 44 -59 113q-19.5 69 -19.5 166q0 190 80.5 277q80.5 87 234.5 87q81 0 140 -20q59 -20 98 -63.5q39 -43.5 58 -112.5q19 -69 19 -168q0 -95 -20.5 -164q-20.5 -69 -60 -113.5q-39.5 -44.5 -98.5 -65.5q-59 -21 -136 -21zt0 0zM355 126q38 0 67 11q29 11 48 36.5q19 25.5 28.5 68.5q9.5 43 9.5 108q0 64 -9.5 107.5q-9.5 43.5 -29 69q-19.5 25.5 -48 36.5q-28.5 11 -66.5 11q-38 0 -66.5 -11q-28.5 -11 -48 -36.5q-19.5 -25.5 -29 -69q-9.5 -43.5 -9.5 -107.5q0 -65 9.5 -108q9.5 -43 29 -68.5q19.5 -25.5 48 -36.5q28.5 -11 66.5 -11zt0 0zM185 882h340v-104l-340 0z" />
<glyph unicode="&#333;" horiz-adv-x="570" d="M285 -14q-128 0 -191.5 67.5q-63.5 67.5 -63.5 216.5q0 146 65 215q65 69 190 69q66 0 114 -15.5q48 -15.5 79.5 -50q31.5 -34.5 46.5 -88.5q15 -54 15 -130q0 -149 -64 -216.5q-64 -67.5 -191 -67.5zt0 0zM285 120q25 0 43.5 7.5q18.5 7.5 31.5 24.5q13 17 19.5 46q6.5 29 6.5 72q0 43 -6 72q-6 29 -19 46q-13 17 -32 24.5q-19 7.5 -44 7.5q-25 0 -44 -7.5q-19 -7.5 -31.5 -25q-12.5 -17.5 -19 -46.5q-6.5 -29 -6.5 -71q0 -43 6.5 -72q6.5 -29 19 -46q12.5 -17 31.5 -24.5q19 -7.5 44 -7.5zt0 0zM140 740h300v-100l-300 0z" />
<glyph unicode="&#336;" horiz-adv-x="710" d="M355 -14q-79 0 -138 20.5q-59 20.5 -98.5 64.5q-39.5 44 -59 113q-19.5 69 -19.5 166q0 190 80.5 277q80.5 87 234.5 87q81 0 140 -20q59 -20 98 -63.5q39 -43.5 58 -112.5q19 -69 19 -168q0 -95 -20.5 -164q-20.5 -69 -60 -113.5q-39.5 -44.5 -98.5 -65.5q-59 -21 -136 -21zt0 0zM355 126q38 0 67 11q29 11 48 36.5q19 25.5 28.5 68.5q9.5 43 9.5 108q0 64 -9.5 107.5q-9.5 43.5 -29 69q-19.5 25.5 -48 36.5q-28.5 11 -66.5 11q-38 0 -66.5 -11q-28.5 -11 -48 -36.5q-19.5 -25.5 -29 -69q-9.5 -43.5 -9.5 -107.5q0 -65 9.5 -108q9.5 -43 29 -68.5q19.5 -25.5 48 -36.5q28.5 -11 66.5 -11zt0 0zM251 920h154l-100 -160h-110zM481 920h174l-160 -160l-124 0z" />
<glyph unicode="&#337;" horiz-adv-x="570" d="M285 -14q-128 0 -191.5 67.5q-63.5 67.5 -63.5 216.5q0 146 65 215q65 69 190 69q66 0 114 -15.5q48 -15.5 79.5 -50q31.5 -34.5 46.5 -88.5q15 -54 15 -130q0 -149 -64 -216.5q-64 -67.5 -191 -67.5zt0 0zM285 120q25 0 43.5 7.5q18.5 7.5 31.5 24.5q13 17 19.5 46q6.5 29 6.5 72q0 43 -6 72q-6 29 -19 46q-13 17 -32 24.5q-19 7.5 -44 7.5q-25 0 -44 -7.5q-19 -7.5 -31.5 -25q-12.5 -17.5 -19 -46.5q-6.5 -29 -6.5 -71q0 -43 6.5 -72q6.5 -29 19 -46q12.5 -17 31.5 -24.5q19 -7.5 44 -7.5zt0 0zM176 780h152l-90 -160h-108zM398 780h172l-150 -160l-122 0z" />
<glyph unicode="&#338;" horiz-adv-x="935" d="M355 -14q-81 0 -140 20q-59 20 -98 64q-39 44 -58 114q-19 70 -19 171q0 95 19.5 163q19.5 68 59 111.5q39.5 43.5 98.5 64q59 20.5 138 20.5q40 0 74.5 -4.5q34.5 -4.5 59.5 -9.5l401 0v-140h-284v-140h244v-130h-244v-150h284v-140h-398q-23 -5 -57.5 -9.5q-34.5 -4.5 -79.5 -4.5zt0 0zM360 132q26 0 48 1q22 1 42 4l0 424q-21 4 -43.5 5.5q-22.5 1.5 -46.5 1.5q-39 0 -68.5 -11q-29.5 -11 -49.5 -36q-20 -25 -30 -65.5q-10 -40.5 -10 -100.5q0 -63 10 -106q10 -43 30 -69q20 -26 49.5 -37t68.5 -11z" />
<glyph unicode="&#339;" horiz-adv-x="920" d="M658 -14q-131 0 -189 74q-30 -38 -76 -56q-46 -18 -106 -18q-129 0 -193 67.5q-64 67.5 -64 216.5q0 146 65.5 215q65.5 69 191.5 69q63 0 109.5 -18q46.5 -18 76.5 -57q60 75 175 75q67 0 113.5 -17.5q46.5 -17.5 75 -50.5q28.5 -33 41 -79.5q12.5 -46.5 12.5 -104.5v-72h-345q4 -64 34.5 -92q30.5 -28 98.5 -28q54 0 105 17q51 17 77 42l0 -134q-17 -11 -36.5 -19.5q-19.5 -8.5 -43.5 -15.5q-24 -7 -54 -10.5q-30 -3.5 -68 -3.5zt0 0zM287 120q26 0 45.5 7.5q19.5 7.5 32.5 24.5q13 17 19.5 46q6.5 29 6.5 72q0 43 -6.5 72q-6.5 29 -19 46q-12.5 17 -32 24.5q-19.5 7.5 -46.5 7.5q-51 0 -77 -32.5q-26 -32.5 -26 -117.5q0 -43 6.5 -72q6.5 -29 19.5 -46q13 -17 32 -24.5q19 -7.5 45 -7.5zt0 0zM648 440q-51 0 -75 -26.5q-24 -26.5 -28 -93.5l195 0q0 63 -19.5 91.5t-72.5 28.5z" />
<glyph unicode="&#340;" horiz-adv-x="640" d="M315 229h-5h-74v-229h-156v695q34 3 72 6q32 2 71 4q39 2 77 2q75 0 126.5 -13.5q51.5 -13.5 83.5 -42q32 -28.5 46 -72q14 -43.5 14 -104.5q0 -88 -24.5 -141q-24.5 -53 -81.5 -79l146 -255h-172zM408 465q0 51 -22.5 73.5q-22.5 22.5 -75.5 22.5q-15 0 -29 -0.5q-14 -0.5 -25 -1.5q-13 -1 -24 -2l0 -188h78q53 0 75.5 22.5q22.5 22.5 22.5 73.5zt0 0zM337 920h192l-168 -160l-122 0z" />
<glyph unicode="&#341;" horiz-adv-x="410" d="M60 540h140l5 -80q18 49 50.5 71.5q32.5 22.5 74.5 22.5q11 0 20 -1q9 -1 16 -2q8 -2 14 -3l0 -154q-11 9 -32.5 17.5q-21.5 8.5 -47.5 8.5q-44 0 -67 -28.5q-23 -28.5 -23 -101.5v-290h-150zM240 780h190l-160 -160l-120 0z" />
<glyph unicode="&#342;" horiz-adv-x="640" d="M315 229h-5h-74v-229h-156v695q34 3 72 6q32 2 71 4q39 2 77 2q75 0 126.5 -13.5q51.5 -13.5 83.5 -42q32 -28.5 46 -72q14 -43.5 14 -104.5q0 -88 -24.5 -141q-24.5 -53 -81.5 -79l146 -255h-172zM408 465q0 51 -22.5 73.5q-22.5 22.5 -75.5 22.5q-15 0 -29 -0.5q-14 -0.5 -25 -1.5q-13 -1 -24 -2l0 -188h78q53 0 75.5 22.5q22.5 22.5 22.5 73.5zt0 0zM270 -183q17 0 31.5 1q14.5 1 25.5 4.5q11 3.5 18 11q7 7.5 10 20.5q-34 0 -54.5 3q-20.5 3 -32 8.5q-11.5 5.5 -15 14.5q-3.5 9 -3.5 21q0 21 21 37q21 16 74 16q49 0 72 -21q23 -21 23 -56q0 -23 -11 -45q-11 -22 -33 -39q-22 -17 -53.5 -27q-31.5 -10 -72.5 -10z" />
<glyph unicode="&#343;" horiz-adv-x="410" d="M60 540h140l5 -80q18 49 50.5 71.5q32.5 22.5 74.5 22.5q11 0 20 -1q9 -1 16 -2q8 -2 14 -3l0 -154q-11 9 -32.5 17.5q-21.5 8.5 -47.5 8.5q-44 0 -67 -28.5q-23 -28.5 -23 -101.5v-290h-150zM65 -183q35 0 55.5 7q20.5 7 24.5 30q-31 0 -50.5 3q-19.5 3 -30.5 9q-11 6 -15 15q-4 9 -4 20q0 21 20.5 37q20.5 16 69.5 16q46 0 68 -21q22 -21 22 -56q0 -23 -9.5 -45q-9.5 -22 -29 -39q-19.5 -17 -50 -27q-30.5 -10 -71.5 -10z" />
<glyph unicode="&#344;" horiz-adv-x="640" d="M315 229h-5h-74v-229h-156v695q34 3 72 6q32 2 71 4q39 2 77 2q75 0 126.5 -13.5q51.5 -13.5 83.5 -42q32 -28.5 46 -72q14 -43.5 14 -104.5q0 -88 -24.5 -141q-24.5 -53 -81.5 -79l146 -255h-172zM408 465q0 51 -22.5 73.5q-22.5 22.5 -75.5 22.5q-15 0 -29 -0.5q-14 -0.5 -25 -1.5q-13 -1 -24 -2l0 -188h78q53 0 75.5 22.5q22.5 22.5 22.5 73.5zt0 0zM110 920h124l76 -84l78 84h122l-122 -160l-156 0z" />
<glyph unicode="&#345;" horiz-adv-x="410" d="M60 540h140l5 -80q18 49 50.5 71.5q32.5 22.5 74.5 22.5q11 0 20 -1q9 -1 16 -2q8 -2 14 -3l0 -154q-11 9 -32.5 17.5q-21.5 8.5 -47.5 8.5q-44 0 -67 -28.5q-23 -28.5 -23 -101.5v-290h-150zM30 780h122l68 -86l70 86h120l-112 -160l-156 0z" />
<glyph unicode="&#346;" horiz-adv-x="580" d="M285 -14q-71 0 -127.5 14q-56.5 14 -92.5 35l0 166q12 -11 32 -23q20 -12 46.5 -22.5q26.5 -10.5 59.5 -17q33 -6.5 72 -6.5q55 0 76.5 17q21.5 17 21.5 46q0 33 -23.5 51.5q-23.5 18.5 -59 32.5q-35.5 14 -76.5 28q-41 14 -76.5 37.5q-35.5 23.5 -59 61.5q-23.5 38 -23.5 99q0 100 59.5 154.5q59.5 54.5 190.5 54.5q62 0 114.5 -9.5q52.5 -9.5 85.5 -25.5l0 -166q-35 26 -86 40.5q-51 14.5 -104 14.5q-29 0 -48 -3.5q-19 -3.5 -30 -10.5q-11 -7 -15.5 -17q-4.5 -10 -4.5 -22q0 -30 23.5 -47q23.5 -17 59 -30q35.5 -13 76.5 -27.5q41 -14.5 76.5 -38.5q35.5 -24 59 -63.5q23.5 -39.5 23.5 -103.5q0 -107 -60 -163q-60 -56 -190 -56zt0 0zM322 920h192l-168 -160l-122 0z" />
</font>
</defs>
</svg>
